  0
SECTION
  2
HEADER
  9
$ACADVER
  1
AC1015
  9
$ACADMAINTVER
 70
     6
  9
$DWGCODEPAGE
  3
ANSI_1252
  9
$INSBASE
 10
0.0
 20
0.0
 30
0.0
  9
$EXTMIN
 10
-275.0402340193238
 20
-179.4302329287113
 30
0.0
  9
$EXTMAX
 10
-126.5402340193238
 20
-74.4302329287112
 30
0.0
  9
$LIMMIN
 10
0.0
 20
0.0
  9
$LIMMAX
 10
12.0
 20
9.0
  9
$ORTHOMODE
 70
     0
  9
$REGENMODE
 70
     1
  9
$FILLMODE
 70
     1
  9
$QTEXTMODE
 70
     0
  9
$MIRRTEXT
 70
     1
  9
$LTSCALE
 40
1.0
  9
$ATTMODE
 70
     1
  9
$TEXTSIZE
 40
0.2
  9
$TRACEWID
 40
0.05
  9
$TEXTSTYLE
  7
Standard
  9
$CLAYER
  8
0
  9
$CELTYPE
  6
ByLayer
  9
$CECOLOR
 62
   256
  9
$CELTSCALE
 40
1.0
  9
$DISPSILH
 70
     0
  9
$DIMSCALE
 40
1.0
  9
$DIMASZ
 40
0.18
  9
$DIMEXO
 40
0.0625
  9
$DIMDLI
 40
0.38
  9
$DIMRND
 40
0.0
  9
$DIMDLE
 40
0.0
  9
$DIMEXE
 40
0.18
  9
$DIMTP
 40
0.0
  9
$DIMTM
 40
0.0
  9
$DIMTXT
 40
0.18
  9
$DIMCEN
 40
0.09
  9
$DIMTSZ
 40
0.0
  9
$DIMTOL
 70
     0
  9
$DIMLIM
 70
     0
  9
$DIMTIH
 70
     1
  9
$DIMTOH
 70
     1
  9
$DIMSE1
 70
     0
  9
$DIMSE2
 70
     0
  9
$DIMTAD
 70
     0
  9
$DIMZIN
 70
     0
  9
$DIMBLK
  1

  9
$DIMASO
 70
     1
  9
$DIMSHO
 70
     1
  9
$DIMPOST
  1

  9
$DIMAPOST
  1

  9
$DIMALT
 70
     0
  9
$DIMALTD
 70
     2
  9
$DIMALTF
 40
25.4
  9
$DIMLFAC
 40
1.0
  9
$DIMTOFL
 70
     0
  9
$DIMTVP
 40
0.0
  9
$DIMTIX
 70
     0
  9
$DIMSOXD
 70
     0
  9
$DIMSAH
 70
     0
  9
$DIMBLK1
  1

  9
$DIMBLK2
  1

  9
$DIMSTYLE
  2
Standard
  9
$DIMCLRD
 70
     0
  9
$DIMCLRE
 70
     0
  9
$DIMCLRT
 70
     0
  9
$DIMTFAC
 40
1.0
  9
$DIMGAP
 40
0.09
  9
$DIMJUST
 70
     0
  9
$DIMSD1
 70
     0
  9
$DIMSD2
 70
     0
  9
$DIMTOLJ
 70
     1
  9
$DIMTZIN
 70
     0
  9
$DIMALTZ
 70
     0
  9
$DIMALTTZ
 70
     0
  9
$DIMUPT
 70
     0
  9
$DIMDEC
 70
     4
  9
$DIMTDEC
 70
     4
  9
$DIMALTU
 70
     2
  9
$DIMALTTD
 70
     2
  9
$DIMTXSTY
  7
Standard
  9
$DIMAUNIT
 70
     0
  9
$DIMADEC
 70
     0
  9
$DIMALTRND
 40
0.0
  9
$DIMAZIN
 70
     0
  9
$DIMDSEP
 70
    46
  9
$DIMATFIT
 70
     3
  9
$DIMFRAC
 70
     0
  9
$DIMLDRBLK
  1

  9
$DIMLUNIT
 70
     2
  9
$DIMLWD
 70
    -2
  9
$DIMLWE
 70
    -2
  9
$DIMTMOVE
 70
     0
  9
$LUNITS
 70
     2
  9
$LUPREC
 70
     4
  9
$SKETCHINC
 40
0.1
  9
$FILLETRAD
 40
0.5
  9
$AUNITS
 70
     0
  9
$AUPREC
 70
     0
  9
$MENU
  1
.
  9
$ELEVATION
 40
0.0
  9
$PELEVATION
 40
0.0
  9
$THICKNESS
 40
0.0
  9
$LIMCHECK
 70
     0
  9
$CHAMFERA
 40
0.5
  9
$CHAMFERB
 40
0.5
  9
$CHAMFERC
 40
1.0
  9
$CHAMFERD
 40
0.0
  9
$SKPOLY
 70
     0
  9
$TDCREATE
 40
2456997.488091424
  9
$TDUCREATE
 40
2456997.446424757
  9
$TDUPDATE
 40
2456997.488091424
  9
$TDUUPDATE
 40
2456997.446424757
  9
$TDINDWG
 40
0.0000000116
  9
$TDUSRTIMER
 40
0.0000000116
  9
$USRTIMER
 70
     1
  9
$ANGBASE
 50
0.0
  9
$ANGDIR
 70
     0
  9
$PDMODE
 70
     0
  9
$PDSIZE
 40
0.0
  9
$PLINEWID
 40
0.0
  9
$SPLFRAME
 70
     0
  9
$SPLINETYPE
 70
     6
  9
$SPLINESEGS
 70
     8
  9
$HANDSEED
  5
214
  9
$SURFTAB1
 70
     6
  9
$SURFTAB2
 70
     6
  9
$SURFTYPE
 70
     6
  9
$SURFU
 70
     6
  9
$SURFV
 70
     6
  9
$UCSBASE
  2

  9
$UCSNAME
  2

  9
$UCSORG
 10
0.0
 20
0.0
 30
0.0
  9
$UCSXDIR
 10
1.0
 20
0.0
 30
0.0
  9
$UCSYDIR
 10
0.0
 20
1.0
 30
0.0
  9
$UCSORTHOREF
  2

  9
$UCSORTHOVIEW
 70
     0
  9
$UCSORGTOP
 10
0.0
 20
0.0
 30
0.0
  9
$UCSORGBOTTOM
 10
0.0
 20
0.0
 30
0.0
  9
$UCSORGLEFT
 10
0.0
 20
0.0
 30
0.0
  9
$UCSORGRIGHT
 10
0.0
 20
0.0
 30
0.0
  9
$UCSORGFRONT
 10
0.0
 20
0.0
 30
0.0
  9
$UCSORGBACK
 10
0.0
 20
0.0
 30
0.0
  9
$PUCSBASE
  2

  9
$PUCSNAME
  2

  9
$PUCSORG
 10
0.0
 20
0.0
 30
0.0
  9
$PUCSXDIR
 10
1.0
 20
0.0
 30
0.0
  9
$PUCSYDIR
 10
0.0
 20
1.0
 30
0.0
  9
$PUCSORTHOREF
  2

  9
$PUCSORTHOVIEW
 70
     0
  9
$PUCSORGTOP
 10
0.0
 20
0.0
 30
0.0
  9
$PUCSORGBOTTOM
 10
0.0
 20
0.0
 30
0.0
  9
$PUCSORGLEFT
 10
0.0
 20
0.0
 30
0.0
  9
$PUCSORGRIGHT
 10
0.0
 20
0.0
 30
0.0
  9
$PUCSORGFRONT
 10
0.0
 20
0.0
 30
0.0
  9
$PUCSORGBACK
 10
0.0
 20
0.0
 30
0.0
  9
$USERI1
 70
     0
  9
$USERI2
 70
     0
  9
$USERI3
 70
     0
  9
$USERI4
 70
     0
  9
$USERI5
 70
     0
  9
$USERR1
 40
18.1
  9
$USERR2
 40
0.0
  9
$USERR3
 40
0.0
  9
$USERR4
 40
0.0
  9
$USERR5
 40
0.0
  9
$WORLDVIEW
 70
     1
  9
$SHADEDGE
 70
     3
  9
$SHADEDIF
 70
    70
  9
$TILEMODE
 70
     1
  9
$MAXACTVP
 70
    64
  9
$PINSBASE
 10
0.0
 20
0.0
 30
0.0
  9
$PLIMCHECK
 70
     0
  9
$PEXTMIN
 10
1.00000000000000E+20
 20
1.00000000000000E+20
 30
1.00000000000000E+20
  9
$PEXTMAX
 10
-1.00000000000000E+20
 20
-1.00000000000000E+20
 30
-1.00000000000000E+20
  9
$PLIMMIN
 10
0.0
 20
0.0
  9
$PLIMMAX
 10
12.0
 20
9.0
  9
$UNITMODE
 70
     0
  9
$VISRETAIN
 70
     1
  9
$PLINEGEN
 70
     0
  9
$PSLTSCALE
 70
     1
  9
$TREEDEPTH
 70
  3020
  9
$CMLSTYLE
  2
Standard
  9
$CMLJUST
 70
     0
  9
$CMLSCALE
 40
1.0
  9
$PROXYGRAPHICS
 70
     1
  9
$MEASUREMENT
 70
     1
  9
$CELWEIGHT
370
    -1
  9
$ENDCAPS
280
     0
  9
$JOINSTYLE
280
     0
  9
$LWDISPLAY
290
     0
  9
$INSUNITS
 70
     4
  9
$HYPERLINKBASE
  1

  9
$STYLESHEET
  1

  9
$XEDIT
290
     1
  9
$CEPSNTYPE
380
     0
  9
$PSTYLEMODE
290
     1
  9
$FINGERPRINTGUID
  2
{83014B89-1703-4A1A-B01C-267548F48FD2}
  9
$VERSIONGUID
  2
{FAEB1C32-E019-11D5-929B-00C0DF256EC4}
  9
$EXTNAMES
290
     1
  9
$PSVPSCALE
 40
0.0
  9
$OLESTARTUP
290
     0
  0
ENDSEC
  0
SECTION
  2
CLASSES
  0
CLASS
  1
ACDBDICTIONARYWDFLT
  2
AcDbDictionaryWithDefault
  3
ObjectDBX Classes
 90
        0
280
     0
281
     0
  0
CLASS
  1
VISUALSTYLE
  2
AcDbVisualStyle
  3
ObjectDBX Classes
 90
     4095
280
     0
281
     0
  0
CLASS
  1
MATERIAL
  2
AcDbMaterial
  3
ObjectDBX Classes
 90
     1153
280
     0
281
     0
  0
CLASS
  1
DICTIONARYVAR
  2
AcDbDictionaryVar
  3
ObjectDBX Classes
 90
        0
280
     0
281
     0
  0
CLASS
  1
ACDBPLACEHOLDER
  2
AcDbPlaceHolder
  3
ObjectDBX Classes
 90
        0
280
     0
281
     0
  0
CLASS
  1
LAYOUT
  2
AcDbLayout
  3
ObjectDBX Classes
 90
        0
280
     0
281
     0
  0
ENDSEC
  0
SECTION
  2
TABLES
  0
TABLE
  2
VPORT
  5
8
330
0
100
AcDbSymbolTable
 70
     1
  0
VPORT
  5
29
330
8
100
AcDbSymbolTableRecord
100
AcDbViewportTableRecord
  2
*Active
 70
     0
 10
0.0
 20
0.0
 11
1.0
 21
1.0
 12
-200.7902340193238
 22
-126.9302329287112
 13
0.0
 23
0.0
 14
0.5
 24
0.5
 15
0.5
 25
0.5
 16
0.0
 26
0.0
 36
1.0
 17
0.0
 27
0.0
 37
0.0
 40
115.5000000000001
 41
1.60267857142857
 42
50.0
 43
0.0
 44
0.0
 50
0.0
 51
0.0
 71
     0
 72
   100
 73
     1
 74
     3
 75
     0
 76
     0
 77
     0
 78
     0
281
     0
 65
     1
110
0.0
120
0.0
130
0.0
111
1.0
121
0.0
131
0.0
112
0.0
122
1.0
132
0.0
 79
     0
146
0.0
  0
ENDTAB
  0
TABLE
  2
LTYPE
  5
5
330
0
100
AcDbSymbolTable
 70
     8
  0
LTYPE
  5
14
330
5
100
AcDbSymbolTableRecord
100
AcDbLinetypeTableRecord
  2
ByBlock
 70
     0
  3

 72
    65
 73
     0
 40
0.0
  0
LTYPE
  5
15
330
5
100
AcDbSymbolTableRecord
100
AcDbLinetypeTableRecord
  2
ByLayer
 70
     0
  3

 72
    65
 73
     0
 40
0.0
  0
LTYPE
  5
16
330
5
100
AcDbSymbolTableRecord
100
AcDbLinetypeTableRecord
  2
Continuous
 70
     0
  3
Solid line
 72
    65
 73
     0
 40
0.0
  0
LTYPE
  5
3F
330
5
100
AcDbSymbolTableRecord
100
AcDbLinetypeTableRecord
  2
DASHED
 70
     0
  3
Dashed
 72
    65
 73
     2
 40
15.0
 49
7.0
 74
     0
 49
-8.0
 74
     0
  0
LTYPE
  5
40
330
5
100
AcDbSymbolTableRecord
100
AcDbLinetypeTableRecord
  2
DOTTED
 70
     0
  3
Dotted
 72
    65
 73
     2
 40
1.0
 49
0.0
 74
     0
 49
-1.0
 74
     0
  0
LTYPE
  5
41
330
5
100
AcDbSymbolTableRecord
100
AcDbLinetypeTableRecord
  2
DOT_CENTER
 70
     0
  3
Dot_Center
 72
    65
 73
     4
 40
14.0
 49
12.0
 74
     0
 49
-1.0
 74
     0
 49
0.0
 74
     0
 49
-1.0
 74
     0
  0
LTYPE
  5
42
330
5
100
AcDbSymbolTableRecord
100
AcDbLinetypeTableRecord
  2
LONG_DASHED
 70
     0
  3
Long_Dashed
 72
    65
 73
     2
 40
15.0
 49
10.0
 74
     0
 49
-5.0
 74
     0
  0
LTYPE
  5
43
330
5
100
AcDbSymbolTableRecord
100
AcDbLinetypeTableRecord
  2
DASH_CENTER
 70
     0
  3
Dash_Center
 72
    65
 73
     4
 40
14.0
 49
11.0
 74
     0
 49
-1.0
 74
     0
 49
1.0
 74
     0
 49
-1.0
 74
     0
  0
LTYPE
  5
44
330
5
100
AcDbSymbolTableRecord
100
AcDbLinetypeTableRecord
  2
PHANTOM
 70
     0
  3
Phantom
 72
    65
 73
     6
 40
13.0
 49
10.0
 74
     0
 49
-1.0
 74
     0
 49
0.0
 74
     0
 49
-1.0
 74
     0
 49
0.0
 74
     0
 49
-1.0
 74
     0
  0
LTYPE
  5
45
330
5
100
AcDbSymbolTableRecord
100
AcDbLinetypeTableRecord
  2
CENTER_DASH_DASH
 70
     0
  3
Center_Dash_Dash
 72
    65
 73
     6
 40
14.0
 49
9.0
 74
     0
 49
-1.0
 74
     0
 49
1.0
 74
     0
 49
-1.0
 74
     0
 49
1.0
 74
     0
 49
-1.0
 74
     0
  0
ENDTAB
  0
TABLE
  2
LAYER
  5
2
330
0
100
AcDbSymbolTable
 70
     2
  0
LAYER
  5
10
330
2
100
AcDbSymbolTableRecord
100
AcDbLayerTableRecord
  2
0
 70
     0
 62
     7
  6
Continuous
370
    -3
390
F
  0
LAYER
  5
46
330
2
100
AcDbSymbolTableRecord
100
AcDbLayerTableRecord
  2
1
 70
     0
 62
     7
  6
Continuous
370
    -3
390
F
  0
ENDTAB
  0
TABLE
  2
STYLE
  5
3
330
0
100
AcDbSymbolTable
 70
     3
  0
STYLE
  5
11
330
3
100
AcDbSymbolTableRecord
100
AcDbTextStyleTableRecord
  2
Standard
 70
     0
 40
0.0
 41
1.0
 50
0.0
 71
     0
 42
0.2
  3
txt
  4

  0
STYLE
  5
9A
330
3
100
AcDbSymbolTableRecord
100
AcDbTextStyleTableRecord
  2
CONVERTER_11
 70
     0
 40
0.0
 41
1.2
 50
0.0
 71
     0
 42
0.2
  3
ARIAL.TTF
  4

  0
STYLE
  5
17A
330
3
100
AcDbSymbolTableRecord
100
AcDbTextStyleTableRecord
  2
CONVERTER_12
 70
     0
 40
0.0
 41
0.95
 50
0.0
 71
     0
 42
0.2
  3
simplex.shx
  4

  0
ENDTAB
  0
TABLE
  2
VIEW
  5
6
330
0
100
AcDbSymbolTable
 70
     0
  0
ENDTAB
  0
TABLE
  2
UCS
  5
7
330
0
100
AcDbSymbolTable
 70
     0
  0
ENDTAB
  0
TABLE
  2
APPID
  5
9
330
0
100
AcDbSymbolTable
 70
     1
  0
APPID
  5
12
330
9
100
AcDbSymbolTableRecord
100
AcDbRegAppTableRecord
  2
ACAD
 70
     0
  0
ENDTAB
  0
TABLE
  2
DIMSTYLE
  5
A
330
0
100
AcDbSymbolTable
 70
     9
100
AcDbDimStyleTable
  0
DIMSTYLE
105
27
330
A
100
AcDbSymbolTableRecord
100
AcDbDimStyleTableRecord
  2
Standard
 70
     0
178
     0
340
11
  0
DIMSTYLE
105
17E
102
{ACAD_REACTORS
330
17F
102
}
330
A
100
AcDbSymbolTableRecord
100
AcDbDimStyleTableRecord
  2
ME10_DIM_10
 70
     0
 41
1.5
 42
0.25
 44
0.5
 73
     0
 74
     0
 77
     1
 78
     8
140
1.5
147
1.0
172
     1
173
     1
174
     1
175
     1
176
     2
177
     2
271
     2
178
     4
271
     2
340
17A
  0
DIMSTYLE
105
189
102
{ACAD_REACTORS
330
18A
102
}
330
A
100
AcDbSymbolTableRecord
100
AcDbDimStyleTableRecord
  2
ME10_DIM_11
 70
     0
 41
1.5
 42
0.25
 44
0.5
 73
     0
 74
     0
 77
     1
 78
     8
140
1.5
147
1.0
172
     1
173
     1
174
     1
175
     1
176
     2
177
     2
271
     2
178
     4
271
     2
340
17A
  0
DIMSTYLE
105
194
102
{ACAD_REACTORS
330
195
102
}
330
A
100
AcDbSymbolTableRecord
100
AcDbDimStyleTableRecord
  2
ME10_DIM_12
 70
     0
 41
1.5
 42
0.25
 44
0.5
 73
     0
 74
     0
 77
     1
 78
     8
140
1.5
147
1.0
172
     1
173
     1
174
     1
175
     1
176
     2
177
     2
271
     2
178
     4
271
     2
340
17A
  0
DIMSTYLE
105
19F
102
{ACAD_REACTORS
330
1A0
102
}
330
A
100
AcDbSymbolTableRecord
100
AcDbDimStyleTableRecord
  2
ME10_DIM_13
 70
     0
 41
1.5
 42
0.25
 44
0.5
 73
     0
 74
     0
 77
     1
 78
     8
140
1.5
147
1.0
172
     1
173
     1
174
     1
175
     1
176
     2
177
     2
271
     2
178
     4
271
     2
340
17A
  0
DIMSTYLE
105
1AA
102
{ACAD_REACTORS
330
1AB
102
}
330
A
100
AcDbSymbolTableRecord
100
AcDbDimStyleTableRecord
  2
ME10_DIM_14
 70
     0
 41
1.5
 42
0.25
 44
0.5
 73
     0
 74
     0
 77
     1
 78
     8
140
1.5
147
1.0
172
     1
173
     1
174
     1
175
     1
176
     2
177
     2
271
     2
178
     4
271
     2
340
17A
  0
DIMSTYLE
105
1B5
102
{ACAD_REACTORS
330
1B6
102
}
330
A
100
AcDbSymbolTableRecord
100
AcDbDimStyleTableRecord
  2
ME10_DIM_15
 70
     0
 41
1.5
 42
0.25
 44
0.5
 77
     1
 78
     8
140
1.5
147
1.0
172
     1
173
     1
174
     1
175
     1
176
     2
177
     2
271
     2
178
     4
271
     2
340
17A
  0
DIMSTYLE
105
1C1
102
{ACAD_REACTORS
330
1C2
102
}
330
A
100
AcDbSymbolTableRecord
100
AcDbDimStyleTableRecord
  2
ME10_DIM_16
 70
     0
 41
1.5
 42
0.25
 44
0.5
 77
     1
 78
     8
140
1.5
147
1.0
172
     1
173
     1
174
     1
175
     1
176
     2
177
     2
271
     2
178
     4
271
     2
340
17A
  0
DIMSTYLE
105
1CC
102
{ACAD_REACTORS
330
1CD
102
}
330
A
100
AcDbSymbolTableRecord
100
AcDbDimStyleTableRecord
  2
ME10_DIM_17
 70
     0
 41
1.5
 42
0.25
 44
0.5
 73
     0
 74
     0
 77
     1
 78
     8
140
1.5
147
1.0
172
     1
173
     1
174
     1
175
     1
176
     2
177
     2
271
     2
178
     4
271
     2
340
17A
  0
ENDTAB
  0
TABLE
  2
BLOCK_RECORD
  5
1
330
0
100
AcDbSymbolTable
 70
    14
  0
BLOCK_RECORD
  5
1F
330
1
100
AcDbSymbolTableRecord
100
AcDbBlockTableRecord
  2
*Model_Space
340
22
  0
BLOCK_RECORD
  5
1B
330
1
100
AcDbSymbolTableRecord
100
AcDbBlockTableRecord
  2
*Paper_Space
340
1E
  0
BLOCK_RECORD
  5
23
330
1
100
AcDbSymbolTableRecord
100
AcDbBlockTableRecord
  2
*Paper_Space0
340
26
  0
BLOCK_RECORD
  5
47
330
1
100
AcDbSymbolTableRecord
100
AcDbBlockTableRecord
  2
_formato_A4
340
0
102
{BLKREFS
331
4B
102
}
  0
BLOCK_RECORD
  5
4A
330
1
100
AcDbSymbolTableRecord
100
AcDbBlockTableRecord
  2
A4_oriz
340
0
102
{BLKREFS
331
4E
102
}
  0
BLOCK_RECORD
  5
174
330
1
100
AcDbSymbolTableRecord
100
AcDbBlockTableRecord
  2
*D3
340
0
  0
BLOCK_RECORD
  5
180
330
1
100
AcDbSymbolTableRecord
100
AcDbBlockTableRecord
  2
*D4
340
0
  0
BLOCK_RECORD
  5
18B
330
1
100
AcDbSymbolTableRecord
100
AcDbBlockTableRecord
  2
*D5
340
0
  0
BLOCK_RECORD
  5
196
330
1
100
AcDbSymbolTableRecord
100
AcDbBlockTableRecord
  2
*D6
340
0
  0
BLOCK_RECORD
  5
1A1
330
1
100
AcDbSymbolTableRecord
100
AcDbBlockTableRecord
  2
*D7
340
0
  0
BLOCK_RECORD
  5
1AC
330
1
100
AcDbSymbolTableRecord
100
AcDbBlockTableRecord
  2
*D8
340
0
  0
BLOCK_RECORD
  5
1B7
330
1
100
AcDbSymbolTableRecord
100
AcDbBlockTableRecord
  2
*D9
340
0
  0
BLOCK_RECORD
  5
1C3
330
1
100
AcDbSymbolTableRecord
100
AcDbBlockTableRecord
  2
*D10
340
0
  0
BLOCK_RECORD
  5
1CE
330
1
100
AcDbSymbolTableRecord
100
AcDbBlockTableRecord
  2
*D11
340
0
102
{BLKREFS
331
1D6
102
}
  0
BLOCK_RECORD
  5
1D7
330
1
100
AcDbSymbolTableRecord
100
AcDbBlockTableRecord
  2
*D12
340
0
102
{BLKREFS
331
1DF
102
}
  0
BLOCK_RECORD
  5
1E0
330
1
100
AcDbSymbolTableRecord
100
AcDbBlockTableRecord
  2
*D13
340
0
102
{BLKREFS
331
1E8
102
}
  0
ENDTAB
  0
ENDSEC
  0
SECTION
  2
BLOCKS
  0
BLOCK
  5
20
330
1F
100
AcDbEntity
  8
0
100
AcDbBlockBegin
  2
*Model_Space
 70
     0
 10
0.0
 20
0.0
 30
0.0
  3
*Model_Space
  1

  0
ENDBLK
  5
21
330
1F
100
AcDbEntity
  8
0
100
AcDbBlockEnd
  0
BLOCK
  5
1C
330
1B
100
AcDbEntity
 67
     1
  8
0
100
AcDbBlockBegin
  2
*Paper_Space
 70
     0
 10
0.0
 20
0.0
 30
0.0
  3
*Paper_Space
  1

  0
ENDBLK
  5
1D
330
1B
100
AcDbEntity
 67
     1
  8
0
100
AcDbBlockEnd
  0
BLOCK
  5
24
330
23
100
AcDbEntity
  8
0
100
AcDbBlockBegin
  2
*Paper_Space0
 70
     0
 10
0.0
 20
0.0
 30
0.0
  3
*Paper_Space0
  1

  0
ENDBLK
  5
25
330
23
100
AcDbEntity
  8
0
100
AcDbBlockEnd
  0
BLOCK
  5
48
330
47
100
AcDbEntity
  8
0
100
AcDbBlockBegin
  2
_formato_A4
 70
     0
 10
-253.0804680386475
 20
-358.8604658574225
 30
0.0
  3
_formato_A4
  1

  0
LINE
  5
4F
330
47
100
AcDbEntity
  8
1
  6
Continuous
 62
     7
100
AcDbLine
 10
-302.0804680386475
 20
-338.8604658574225
 30
0.0
 11
-302.0804680386475
 21
-353.8604658574225
 31
0.0
  0
LINE
  5
50
330
47
100
AcDbEntity
  8
1
  6
Continuous
 62
     7
100
AcDbLine
 10
-284.7278666611621
 20
-338.8604658574225
 30
0.0
 11
-284.7278666611621
 21
-353.8604658574225
 31
0.0
  0
LINE
  5
51
330
47
100
AcDbEntity
  8
1
  6
Continuous
 62
     7
100
AcDbLine
 10
-412.0804680386475
 20
-338.8604658574225
 30
0.0
 11
-412.0804680386475
 21
-353.8604658574225
 31
0.0
  0
LINE
  5
52
330
47
100
AcDbEntity
  8
1
  6
Continuous
 62
     7
100
AcDbLine
 10
-442.0804680386475
 20
-346.3604658574225
 30
0.0
 11
-412.0804680386475
 21
-346.3604658574225
 31
0.0
  0
LINE
  5
53
330
47
100
AcDbEntity
  8
1
  6
Continuous
 62
     7
100
AcDbLine
 10
-401.5804680386477
 20
-148.8604658574224
 30
0.0
 11
-401.5804680386477
 21
-163.8604658574224
 31
0.0
  0
LINE
  5
54
330
47
100
AcDbEntity
  8
1
  6
Continuous
 62
     7
100
AcDbLine
 10
-550.0804680386476
 20
-358.8604658574225
 30
0.0
 11
-253.0804680386475
 21
-358.8604658574225
 31
0.0
  0
LINE
  5
55
330
47
100
AcDbEntity
  8
1
  6
Continuous
 62
     7
100
AcDbLine
 10
-550.0804680386476
 20
-148.8604658574224
 30
0.0
 11
-550.0804680386476
 21
-358.8604658574225
 31
0.0
  0
LINE
  5
56
330
47
100
AcDbEntity
  8
1
  6
Continuous
 62
     7
100
AcDbLine
 10
-253.0804680386475
 20
-148.8604658574224
 30
0.0
 11
-550.0804680386476
 21
-148.8604658574224
 31
0.0
  0
LINE
  5
57
330
47
100
AcDbEntity
  8
1
  6
Continuous
 62
     7
100
AcDbLine
 10
-253.0804680386475
 20
-358.8604658574225
 30
0.0
 11
-253.0804680386475
 21
-148.8604658574224
 31
0.0
  0
LINE
  5
58
330
47
100
AcDbEntity
  8
1
  6
Continuous
 62
     7
100
AcDbLine
 10
-545.0804680386477
 20
-353.8604658574225
 30
0.0
 11
-258.0804680386475
 21
-353.8604658574225
 31
0.0
  0
LINE
  5
59
330
47
100
AcDbEntity
  8
1
  6
Continuous
 62
     7
100
AcDbLine
 10
-258.0804680386475
 20
-353.8604658574225
 30
0.0
 11
-258.0804680386475
 21
-169.8604658574226
 31
0.0
  0
LINE
  5
5A
330
47
100
AcDbEntity
  8
1
  6
Continuous
 62
     7
100
AcDbLine
 10
-258.0804680386475
 20
-169.8604658574226
 30
0.0
 11
-545.0804680386477
 21
-169.8604658574226
 31
0.0
  0
LINE
  5
5B
102
{ACAD_REACTORS
330
A6
102
}
330
47
100
AcDbEntity
  8
1
  6
Continuous
 62
     7
100
AcDbLine
 10
-269.0708340165713
 20
-348.7829660175898
 30
0.0
 11
-269.0708340165713
 21
-343.9379656972551
 31
0.0
  0
LINE
  5
5C
102
{ACAD_REACTORS
330
A3
102
}
330
47
100
AcDbEntity
  8
1
  6
Continuous
 62
     7
100
AcDbLine
 10
-270.4041673499047
 20
-346.3604658574225
 30
0.0
 11
-270.4041673499047
 21
-344.6284150498535
 31
0.0
  0
LINE
  5
5D
102
{ACAD_REACTORS
330
A3
102
}
330
47
100
AcDbEntity
  8
1
  6
Continuous
 62
     7
100
AcDbLine
 10
-270.4041673499047
 20
-344.6284150498535
 30
0.0
 11
-271.2598297826074
 21
-346.1104658574225
 31
0.0
  0
LINE
  5
5E
102
{ACAD_REACTORS
330
A3
102
}
330
47
100
AcDbEntity
  8
1
  6
Continuous
 62
     7
100
AcDbLine
 10
-271.5485049172022
 20
-346.1104658574225
 30
0.0
 11
-272.4041673499047
 21
-344.6284150498535
 31
0.0
  0
LINE
  5
5F
102
{ACAD_REACTORS
330
A3
102
}
330
47
100
AcDbEntity
  8
1
  6
Continuous
 62
     7
100
AcDbLine
 10
-272.4041673499047
 20
-344.6284150498535
 30
0.0
 11
-272.4041673499047
 21
-346.3604658574225
 31
0.0
  0
LINE
  5
60
330
47
100
AcDbEntity
  8
1
  6
Continuous
 62
     7
100
AcDbLine
 10
-279.8206026250463
 20
-346.216101593081
 30
0.0
 11
-271.4041673499047
 21
-341.3604658574225
 31
0.0
  0
LINE
  5
61
330
47
100
AcDbEntity
  8
1
  6
Continuous
 62
     7
100
AcDbLine
 10
-271.4041673499047
 20
-341.3604658574225
 30
0.0
 11
-262.9877320747633
 21
-346.216101593081
 31
0.0
  0
LINE
  5
62
330
47
100
AcDbEntity
  8
1
  6
Continuous
 62
     7
100
AcDbLine
 10
-262.9877320747633
 20
-346.5048301217639
 30
0.0
 11
-271.4041673499047
 21
-351.3604658574225
 31
0.0
  0
LINE
  5
63
330
47
100
AcDbEntity
  8
1
  6
Continuous
 62
     7
100
AcDbLine
 10
-271.4041673499047
 20
-351.3604658574225
 30
0.0
 11
-279.8206026250463
 21
-346.5048301217639
 31
0.0
  0
LINE
  5
64
102
{ACAD_REACTORS
330
A3
102
}
330
47
100
AcDbEntity
  8
1
  6
Continuous
 62
     7
100
AcDbLine
 10
-273.0708340165715
 20
-346.3604658574225
 30
0.0
 11
-273.0708340165715
 21
-343.1292485453879
 31
0.0
  0
LINE
  5
65
102
{ACAD_REACTORS
330
A3
102
}
330
47
100
AcDbEntity
  8
1
  6
Continuous
 62
     7
100
AcDbLine
 10
-272.576400332948
 20
-342.9967654391503
 30
0.0
 11
-271.4041673499047
 21
-345.0271325240892
 31
0.0
  0
LINE
  5
66
102
{ACAD_REACTORS
330
A3
102
}
330
47
100
AcDbEntity
  8
1
  6
Continuous
 62
     7
100
AcDbLine
 10
-273.0708340165715
 20
-346.3604658574225
 30
0.0
 11
-273.0708340165715
 21
-348.0128807847896
 31
0.0
  0
LINE
  5
67
102
{ACAD_REACTORS
330
A3
102
}
330
47
100
AcDbEntity
  8
1
  6
Continuous
 62
     7
100
AcDbLine
 10
-272.4041673499047
 20
-348.0128807847896
 30
0.0
 11
-272.4041673499047
 21
-346.3604658574225
 31
0.0
  0
LINE
  5
68
102
{ACAD_REACTORS
330
A3
102
}
330
47
100
AcDbEntity
  8
1
  6
Continuous
 62
     7
100
AcDbLine
 10
-270.4041673499047
 20
-346.3604658574225
 30
0.0
 11
-270.4041673499047
 21
-349.5521967868208
 31
0.0
  0
LINE
  5
69
102
{ACAD_REACTORS
330
A3
102
}
330
47
100
AcDbEntity
  8
1
  6
Continuous
 62
     7
100
AcDbLine
 10
-269.7375006832381
 20
-349.5521967868208
 30
0.0
 11
-269.7375006832381
 21
-343.1292485453879
 31
0.0
  0
LINE
  5
6A
102
{ACAD_REACTORS
330
A3
102
}
330
47
100
AcDbEntity
  8
1
  6
Continuous
 62
     7
100
AcDbLine
 10
-270.2319343668614
 20
-342.9967654391503
 30
0.0
 11
-271.4041673499047
 21
-345.0271325240892
 31
0.0
  0
LINE
  5
6B
102
{ACAD_REACTORS
330
A4
102
}
330
47
100
AcDbEntity
  8
1
  6
Continuous
 62
     7
100
AcDbLine
 10
-274.4041673499047
 20
-348.5904447093899
 30
0.0
 11
-274.4041673499047
 21
-343.9379656972551
 31
0.0
  0
LINE
  5
6C
102
{ACAD_REACTORS
330
A4
102
}
330
47
100
AcDbEntity
  8
1
  6
Continuous
 62
     7
100
AcDbLine
 10
-273.7375006832381
 20
-343.9379656972551
 30
0.0
 11
-273.7375006832381
 21
-348.5904447093899
 31
0.0
  0
LINE
  5
6D
102
{ACAD_REACTORS
330
A4
102
}
330
47
100
AcDbEntity
  8
1
  6
Continuous
 62
     7
100
AcDbLine
 10
-273.7375006832381
 20
-348.5904447093899
 30
0.0
 11
-271.5709265320748
 21
-349.840391335061
 31
0.0
  0
LINE
  5
6E
102
{ACAD_REACTORS
330
A4
102
}
330
47
100
AcDbEntity
  8
1
  6
Continuous
 62
     7
100
AcDbLine
 10
-271.9040748344014
 20
-350.4178483924268
 30
0.0
 11
-274.0706489855644
 21
-349.1679017667557
 31
0.0
  0
LINE
  5
6F
102
{ACAD_REACTORS
330
A5
102
}
330
47
100
AcDbEntity
  8
1
  6
Continuous
 62
     7
100
AcDbLine
 10
-275.0708340165715
 20
-344.7071964664858
 30
0.0
 11
-275.0708340165715
 21
-347.8212139401592
 31
0.0
  0
LINE
  5
70
102
{ACAD_REACTORS
330
A5
102
}
330
47
100
AcDbEntity
  8
1
  6
Continuous
 62
     7
100
AcDbLine
 10
-275.0708340165715
 20
-347.8212139401592
 30
0.0
 11
-275.0708340165715
 21
-348.0137352483592
 31
0.0
  0
LINE
  5
71
102
{ACAD_REACTORS
330
A5
102
}
330
47
100
AcDbEntity
  8
1
  6
Continuous
 62
     7
100
AcDbLine
 10
-275.7375006832381
 20
-348.0137352483592
 30
0.0
 11
-275.7375006832381
 21
-344.7071964664858
 31
0.0
  0
LINE
  5
72
102
{ACAD_REACTORS
330
A6
102
}
330
47
100
AcDbEntity
  8
1
  6
Continuous
 62
     7
100
AcDbLine
 10
-268.5709265320748
 20
-343.6492371685723
 30
0.0
 11
-267.2375931987416
 21
-344.4184679378029
 31
0.0
  0
LINE
  5
73
102
{ACAD_REACTORS
330
A6
102
}
330
47
100
AcDbEntity
  8
1
  6
Continuous
 62
     7
100
AcDbLine
 10
-267.570741501068
 20
-344.9959249951687
 30
0.0
 11
-268.4041673499047
 21
-344.5151023900706
 31
0.0
  0
LINE
  5
74
102
{ACAD_REACTORS
330
A6
102
}
330
47
100
AcDbEntity
  8
1
  6
Continuous
 62
     7
100
AcDbLine
 10
-268.4041673499047
 20
-344.5151023900706
 30
0.0
 11
-268.4041673499047
 21
-346.0271325240892
 31
0.0
  0
LINE
  5
75
102
{ACAD_REACTORS
330
A6
102
}
330
47
100
AcDbEntity
  8
1
  6
Continuous
 62
     7
100
AcDbLine
 10
-268.4041673499047
 20
-346.0271325240892
 30
0.0
 11
-267.4041673499047
 21
-346.0271325240892
 31
0.0
  0
LINE
  5
76
102
{ACAD_REACTORS
330
A6
102
}
330
47
100
AcDbEntity
  8
1
  6
Continuous
 62
     7
100
AcDbLine
 10
-267.4041673499047
 20
-346.6937991907558
 30
0.0
 11
-268.4041673499047
 21
-346.6937991907558
 31
0.0
  0
LINE
  5
77
102
{ACAD_REACTORS
330
A6
102
}
330
47
100
AcDbEntity
  8
1
  6
Continuous
 62
     7
100
AcDbLine
 10
-268.4041673499047
 20
-346.6937991907558
 30
0.0
 11
-268.4041673499047
 21
-348.2058293247744
 31
0.0
  0
LINE
  5
78
102
{ACAD_REACTORS
330
A6
102
}
330
47
100
AcDbEntity
  8
1
  6
Continuous
 62
     7
100
AcDbLine
 10
-268.4041673499047
 20
-348.2058293247744
 30
0.0
 11
-267.570741501068
 21
-347.7250067196761
 31
0.0
  0
LINE
  5
79
102
{ACAD_REACTORS
330
A6
102
}
330
47
100
AcDbEntity
  8
1
  6
Continuous
 62
     7
100
AcDbLine
 10
-267.2375931987416
 20
-348.3024637770421
 30
0.0
 11
-268.5709265320748
 21
-349.0716945462727
 31
0.0
  0
LINE
  5
7A
330
47
100
AcDbEntity
  8
1
  6
Continuous
 62
     7
100
AcDbLine
 10
-442.0804680386475
 20
-333.8604658574225
 30
0.0
 11
-258.0804680386475
 21
-333.8604658574225
 31
0.0
  0
LINE
  5
7B
330
47
100
AcDbEntity
  8
1
  6
Continuous
 62
     7
100
AcDbLine
 10
-435.0804680386475
 20
-338.8604658574225
 30
0.0
 11
-435.0804680386475
 21
-333.8604658574225
 31
0.0
  0
LINE
  5
7C
330
47
100
AcDbEntity
  8
1
  6
Continuous
 62
     7
100
AcDbLine
 10
-417.0804680386473
 20
-338.8604658574225
 30
0.0
 11
-417.0804680386473
 21
-333.8604658574225
 31
0.0
  0
LINE
  5
7D
330
47
100
AcDbEntity
  8
1
  6
Continuous
 62
     7
100
AcDbLine
 10
-442.0804680386475
 20
-328.8604658574225
 30
0.0
 11
-258.0804680386475
 21
-328.8604658574225
 31
0.0
  0
LINE
  5
7E
330
47
100
AcDbEntity
  8
1
  6
Continuous
 62
     7
100
AcDbLine
 10
-435.0804680386475
 20
-333.8604658574225
 30
0.0
 11
-435.0804680386475
 21
-328.8604658574225
 31
0.0
  0
LINE
  5
7F
330
47
100
AcDbEntity
  8
1
  6
Continuous
 62
     7
100
AcDbLine
 10
-417.0804680386473
 20
-333.8604658574225
 30
0.0
 11
-417.0804680386473
 21
-328.8604658574225
 31
0.0
  0
LINE
  5
80
330
47
100
AcDbEntity
  8
1
  6
Continuous
 62
     7
100
AcDbLine
 10
-442.0804680386475
 20
-323.8604658574225
 30
0.0
 11
-258.0804680386475
 21
-323.8604658574225
 31
0.0
  0
LINE
  5
81
330
47
100
AcDbEntity
  8
1
  6
Continuous
 62
     7
100
AcDbLine
 10
-435.0804680386475
 20
-328.8604658574225
 30
0.0
 11
-435.0804680386475
 21
-323.8604658574225
 31
0.0
  0
LINE
  5
82
330
47
100
AcDbEntity
  8
1
  6
Continuous
 62
     7
100
AcDbLine
 10
-417.0804680386473
 20
-328.8604658574225
 30
0.0
 11
-417.0804680386473
 21
-323.8604658574225
 31
0.0
  0
LINE
  5
83
330
47
100
AcDbEntity
  8
1
  6
Continuous
 62
     7
100
AcDbLine
 10
-442.0804680386475
 20
-318.8604658574225
 30
0.0
 11
-258.0804680386475
 21
-318.8604658574225
 31
0.0
  0
LINE
  5
84
330
47
100
AcDbEntity
  8
1
  6
Continuous
 62
     7
100
AcDbLine
 10
-435.0804680386475
 20
-323.8604658574225
 30
0.0
 11
-435.0804680386475
 21
-318.8604658574225
 31
0.0
  0
LINE
  5
85
330
47
100
AcDbEntity
  8
1
  6
Continuous
 62
     7
100
AcDbLine
 10
-417.0804680386473
 20
-323.8604658574225
 30
0.0
 11
-417.0804680386473
 21
-318.8604658574225
 31
0.0
  0
LINE
  5
86
330
47
100
AcDbEntity
  8
1
  6
Continuous
 62
     7
100
AcDbLine
 10
-545.0804680386477
 20
-169.8604658574226
 30
0.0
 11
-545.0804680386477
 21
-353.8604658574225
 31
0.0
  0
LINE
  5
87
330
47
100
AcDbEntity
  8
1
  6
Continuous
 62
     7
100
AcDbLine
 10
-442.0804680386475
 20
-338.8604658574225
 30
0.0
 11
-258.0804680386475
 21
-338.8604658574225
 31
0.0
  0
LINE
  5
88
330
47
100
AcDbEntity
  8
1
  6
Continuous
 62
     7
100
AcDbLine
 10
-442.0804680386475
 20
-353.8604658574227
 30
0.0
 11
-442.0804680386475
 21
-318.8604658574225
 31
0.0
  0
ARC
  5
89
102
{ACAD_REACTORS
330
A3
102
}
330
47
100
AcDbEntity
  8
1
  6
Continuous
 62
     7
100
AcDbCircle
 10
-272.8058678040961
 20
-343.1292485453879
 30
0.0
 40
0.2649662124752258
100
AcDbArc
 50
29.99999999999693
 51
180.0
  0
ARC
  5
8A
102
{ACAD_REACTORS
330
A3
102
}
330
47
100
AcDbEntity
  8
1
  6
Continuous
 62
     7
100
AcDbCircle
 10
-272.7375006832381
 20
-348.0128807847896
 30
0.0
 40
0.3333333333333712
100
AcDbArc
 50
180.0
 51
0.0
  0
ARC
  5
8B
102
{ACAD_REACTORS
330
A3
102
}
330
47
100
AcDbEntity
  8
1
  6
Continuous
 62
     7
100
AcDbCircle
 10
-270.0708340165713
 20
-349.5521967868208
 30
0.0
 40
0.3333333333333712
100
AcDbArc
 50
180.0
 51
0.0
  0
ARC
  5
8C
102
{ACAD_REACTORS
330
A3
102
}
330
47
100
AcDbEntity
  8
1
  6
Continuous
 62
     7
100
AcDbCircle
 10
-270.0024668957135
 20
-343.1292485453879
 30
0.0
 40
0.2649662124753718
100
AcDbArc
 50
0.0
 51
149.9999999999847
  0
ARC
  5
8D
102
{ACAD_REACTORS
330
A4
102
}
330
47
100
AcDbEntity
  8
1
  6
Continuous
 62
     7
100
AcDbCircle
 10
-274.0708340165715
 20
-343.9379656972551
 30
0.0
 40
0.3333333333333712
100
AcDbArc
 50
0.0
 51
180.0
  0
ARC
  5
8E
102
{ACAD_REACTORS
330
A4
102
}
330
47
100
AcDbEntity
  8
1
  6
Continuous
 62
     7
100
AcDbCircle
 10
-271.7375006832381
 20
-350.1291198637439
 30
0.0
 40
0.3333333333333993
100
AcDbArc
 50
240.0183606311409
 51
60.01836063113244
  0
ARC
  5
8F
102
{ACAD_REACTORS
330
A5
102
}
330
47
100
AcDbEntity
  8
1
  6
Continuous
 62
     7
100
AcDbCircle
 10
-275.4041673499047
 20
-344.7071964664858
 30
0.0
 40
0.3333333333332007
100
AcDbArc
 50
0.0
 51
180.0
  0
ARC
  5
90
102
{ACAD_REACTORS
330
A5
102
}
330
47
100
AcDbEntity
  8
1
  6
Continuous
 62
     7
100
AcDbCircle
 10
-275.4041673499047
 20
-348.0137352483592
 30
0.0
 40
0.3333333333334281
100
AcDbArc
 50
180.0
 51
0.0
  0
ARC
  5
91
102
{ACAD_REACTORS
330
A6
102
}
330
47
100
AcDbEntity
  8
1
  6
Continuous
 62
     7
100
AcDbCircle
 10
-267.4041673499047
 20
-344.7071964664858
 30
0.0
 40
0.3333333333334277
100
AcDbArc
 50
240.0183606311324
 51
60.0183606311663
  0
ARC
  5
92
102
{ACAD_REACTORS
330
A6
102
}
330
47
100
AcDbEntity
  8
1
  6
Continuous
 62
     7
100
AcDbCircle
 10
-267.4041673499047
 20
-346.3604658574225
 30
0.0
 40
0.3333333333332575
100
AcDbArc
 50
270.0
 51
90.0
  0
ARC
  5
93
102
{ACAD_REACTORS
330
A6
102
}
330
47
100
AcDbEntity
  8
1
  6
Continuous
 62
     7
100
AcDbCircle
 10
-267.4041673499047
 20
-348.0137352483592
 30
0.0
 40
0.3333333333333141
100
AcDbArc
 50
299.9816393688337
 51
119.9816393688529
  0
ARC
  5
94
102
{ACAD_REACTORS
330
A3
102
}
330
47
100
AcDbEntity
  8
1
  6
Continuous
 62
     7
100
AcDbCircle
 10
-271.4041673499047
 20
-346.0271325240892
 30
0.0
 40
0.1666666666667365
100
AcDbArc
 50
209.9999999999786
 51
329.9999999999823
  0
ARC
  5
95
102
{ACAD_REACTORS
330
A4
102
}
330
47
100
AcDbEntity
  8
1
  6
Continuous
 62
     7
100
AcDbCircle
 10
-273.7375006832381
 20
-348.5904447093899
 30
0.0
 40
0.6666666666665719
100
AcDbArc
 50
180.0
 51
240.018360631162
  0
ARC
  5
96
330
47
100
AcDbEntity
  8
1
  6
Continuous
 62
     7
100
AcDbCircle
 10
-279.7373155494647
 20
-346.3604658574225
 30
0.0
 40
0.1666666666667347
100
AcDbArc
 50
119.9816393688409
 51
240.0183606311396
  0
ARC
  5
97
330
47
100
AcDbEntity
  8
1
  6
Continuous
 62
     7
100
AcDbCircle
 10
-263.0710191503448
 20
-346.3604658574225
 30
0.0
 40
0.1666666666665794
100
AcDbArc
 50
299.9816393688265
 51
60.01836063119298
  0
ARC
  5
98
102
{ACAD_REACTORS
330
A6
102
}
330
47
100
AcDbEntity
  8
1
  6
Continuous
 62
     7
100
AcDbCircle
 10
-268.7375006832381
 20
-343.9379656972551
 30
0.0
 40
0.3333333333333292
100
AcDbArc
 50
60.01836063112268
 51
180.0
  0
ARC
  5
99
102
{ACAD_REACTORS
330
A6
102
}
330
47
100
AcDbEntity
  8
1
  6
Continuous
 62
     7
100
AcDbCircle
 10
-268.7375006832381
 20
-348.7829660175898
 30
0.0
 40
0.3333333333332007
100
AcDbArc
 50
180.0
 51
299.9816393688676
  0
MTEXT
  5
9B
330
47
100
AcDbEntity
  8
1
 62
     7
100
AcDbMText
 10
-398.5804680386477
 20
-164.8604658574224
 30
0.0
 40
4.0
 41
0.0
 71
     5
 72
     1
  1
Diritti riservati      All rights reserved
  7
CONVERTER_11
 73
     1
 44
1.32052821128451
  0
MTEXT
  5
9C
330
47
100
AcDbEntity
  8
1
 62
     7
100
AcDbMText
 10
-440.0804680386475
 20
-342.5998264366665
 30
0.0
 40
3.0
 41
0.0
 71
     4
 72
     1
  1
Date
  7
CONVERTER_11
 73
     1
 44
1.32052821128451
  0
MTEXT
  5
9D
330
47
100
AcDbEntity
  8
1
 62
     7
100
AcDbMText
 10
-429.4804680386474
 20
-342.5998264366665
 30
0.0
 40
3.0
 41
0.0
 71
     4
 72
     1
  1
21/05/07
  7
CONVERTER_11
 73
     1
 44
1.32052821128451
  0
MTEXT
  5
9E
330
47
100
AcDbEntity
  8
1
 62
     7
100
AcDbMText
 10
-440.0804680386475
 20
-350.1104658574225
 30
0.0
 40
3.0
 41
0.0
 71
     4
 72
     1
  1
Sign.
  7
CONVERTER_11
 73
     1
 44
1.32052821128451
  0
MTEXT
  5
9F
330
47
100
AcDbEntity
  8
1
 62
     7
100
AcDbMText
 10
-432.2804680386474
 20
-349.6104658574225
 30
0.0
 40
3.0
 41
0.0
 71
     4
 72
     1
  1
D. Bernasconi
  7
CONVERTER_11
 73
     1
 44
1.32052821128451
  0
MTEXT
  5
A0
330
47
100
AcDbEntity
  8
1
 62
     7
100
AcDbMText
 10
-409.9041673499047
 20
-346.3604658574225
 30
0.0
 40
4.5
 41
0.0
 71
     4
 72
     1
  1
CR 24 SCA\PAnchorages x earth conn. and shielded c. x 24P
  7
CONVERTER_11
 73
     1
 44
0.90036014405762
  0
MTEXT
  5
A1
330
47
100
AcDbEntity
  8
1
 62
     7
100
AcDbMText
 10
-293.4041673499048
 20
-342.5998264366665
 30
0.0
 40
3.0
 41
0.0
 71
     5
 72
     1
  1
Scale
  7
CONVERTER_11
 73
     1
 44
1.32052821128451
  0
MTEXT
  5
A2
330
47
100
AcDbEntity
  8
1
 62
     7
100
AcDbMText
 10
-293.4041673499048
 20
-348.7998264366665
 30
0.0
 40
4.5
 41
0.0
 71
     5
 72
     1
  1
2:1
  7
CONVERTER_11
 73
     1
 44
1.32052821128451
  0
HATCH
  5
A3
330
47
100
AcDbEntity
  8
1
  6
Continuous
 62
     7
100
AcDbHatch
 10
0.0
 20
0.0
 30
0.0
210
0.0
220
0.0
230
1.0
  2
SOLID
 70
     1
 71
     1
 91
        1
 92
        1
 93
       16
 72
     2
 10
-272.8058678040961
 20
-343.1292485453879
 40
0.2649662124752258
 50
29.99999999999693
 51
180.0
 73
     1
 72
     1
 10
-273.0708340165715
 20
-343.1292485453879
 11
-273.0708340165715
 21
-346.3604658574225
 72
     1
 10
-273.0708340165715
 20
-346.3604658574225
 11
-273.0708340165715
 21
-348.0128807847896
 72
     2
 10
-272.7375006832381
 20
-348.0128807847896
 40
0.3333333333333712
 50
180.0
 51
360.0
 73
     1
 72
     1
 10
-272.4041673499047
 20
-348.0128807847896
 11
-272.4041673499047
 21
-346.3604658574225
 72
     1
 10
-272.4041673499047
 20
-346.3604658574225
 11
-272.4041673499047
 21
-344.6284150498535
 72
     1
 10
-272.4041673499047
 20
-344.6284150498535
 11
-271.5485049172022
 21
-346.1104658574225
 72
     2
 10
-271.4041673499047
 20
-346.0271325240892
 40
0.1666666666667365
 50
209.9999999999786
 51
329.9999999999823
 73
     1
 72
     1
 10
-271.2598297826074
 20
-346.1104658574225
 11
-270.4041673499047
 21
-344.6284150498535
 72
     1
 10
-270.4041673499047
 20
-344.6284150498535
 11
-270.4041673499047
 21
-346.3604658574225
 72
     1
 10
-270.4041673499047
 20
-346.3604658574225
 11
-270.4041673499047
 21
-349.5521967868208
 72
     2
 10
-270.0708340165713
 20
-349.5521967868208
 40
0.3333333333333712
 50
180.0
 51
360.0
 73
     1
 72
     1
 10
-269.7375006832381
 20
-349.5521967868208
 11
-269.7375006832381
 21
-343.1292485453879
 72
     2
 10
-270.0024668957135
 20
-343.1292485453879
 40
0.2649662124753718
 50
0.0
 51
149.9999999999847
 73
     1
 72
     1
 10
-270.2319343668614
 20
-342.9967654391503
 11
-271.4041673499047
 21
-345.0271325240892
 72
     1
 10
-271.4041673499047
 20
-345.0271325240892
 11
-272.576400332948
 21
-342.9967654391503
 97
       16
330
6A
330
8C
330
69
330
8B
330
68
330
5C
330
5D
330
94
330
5E
330
5F
330
67
330
8A
330
66
330
64
330
89
330
65
 75
     0
 76
     1
 98
        1
 10
0.0
 20
0.0
  0
HATCH
  5
A4
330
47
100
AcDbEntity
  8
1
  6
Continuous
 62
     7
100
AcDbHatch
 10
0.0
 20
0.0
 30
0.0
210
0.0
220
0.0
230
1.0
  2
SOLID
 70
     1
 71
     1
 91
        1
 92
        1
 93
        7
 72
     1
 10
-273.7375006832381
 20
-343.9379656972551
 11
-273.7375006832381
 21
-348.5904447093899
 72
     1
 10
-273.7375006832381
 20
-348.5904447093899
 11
-271.5709265320748
 21
-349.840391335061
 72
     2
 10
-271.7375006832381
 20
-350.1291198637439
 40
0.3333333333333993
 50
299.9816393688676
 51
479.9816393688591
 73
     0
 72
     1
 10
-271.9040748344014
 20
-350.4178483924268
 11
-274.0706489855644
 21
-349.1679017667557
 72
     2
 10
-273.7375006832381
 20
-348.5904447093899
 40
0.6666666666665719
 50
119.9816393688379
 51
180.0
 73
     0
 72
     1
 10
-274.4041673499047
 20
-348.5904447093899
 11
-274.4041673499047
 21
-343.9379656972551
 72
     2
 10
-274.0708340165715
 20
-343.9379656972551
 40
0.3333333333333712
 50
180.0
 51
360.0
 73
     0
 97
        7
330
6C
330
6D
330
8E
330
6E
330
95
330
6B
330
8D
 75
     0
 76
     1
 98
        1
 10
0.0
 20
0.0
  0
HATCH
  5
A5
330
47
100
AcDbEntity
  8
1
  6
Continuous
 62
     7
100
AcDbHatch
 10
0.0
 20
0.0
 30
0.0
210
0.0
220
0.0
230
1.0
  2
SOLID
 70
     1
 71
     1
 91
        1
 92
        1
 93
        5
 72
     1
 10
-275.0708340165715
 20
-344.7071964664858
 11
-275.0708340165715
 21
-347.8212139401592
 72
     1
 10
-275.0708340165715
 20
-347.8212139401592
 11
-275.0708340165715
 21
-348.0137352483592
 72
     2
 10
-275.4041673499047
 20
-348.0137352483592
 40
0.3333333333334281
 50
0.0
 51
180.0
 73
     0
 72
     1
 10
-275.7375006832381
 20
-348.0137352483592
 11
-275.7375006832381
 21
-344.7071964664858
 72
     2
 10
-275.4041673499047
 20
-344.7071964664858
 40
0.3333333333332007
 50
180.0
 51
360.0
 73
     0
 97
        5
330
6F
330
70
330
90
330
71
330
8F
 75
     0
 76
     1
 98
        1
 10
0.0
 20
0.0
  0
HATCH
  5
A6
330
47
100
AcDbEntity
  8
1
  6
Continuous
 62
     7
100
AcDbHatch
 10
0.0
 20
0.0
 30
0.0
210
0.0
220
0.0
230
1.0
  2
SOLID
 70
     1
 71
     1
 91
        1
 92
        1
 93
       14
 72
     1
 10
-267.570741501068
 20
-344.9959249951687
 11
-268.4041673499047
 21
-344.5151023900706
 72
     1
 10
-268.4041673499047
 20
-344.5151023900706
 11
-268.4041673499047
 21
-346.0271325240892
 72
     1
 10
-268.4041673499047
 20
-346.0271325240892
 11
-267.4041673499047
 21
-346.0271325240892
 72
     2
 10
-267.4041673499047
 20
-346.3604658574225
 40
0.3333333333332575
 50
270.0
 51
450.0
 73
     0
 72
     1
 10
-267.4041673499047
 20
-346.6937991907558
 11
-268.4041673499047
 21
-346.6937991907558
 72
     1
 10
-268.4041673499047
 20
-346.6937991907558
 11
-268.4041673499047
 21
-348.2058293247744
 72
     1
 10
-268.4041673499047
 20
-348.2058293247744
 11
-267.570741501068
 21
-347.7250067196761
 72
     2
 10
-267.4041673499047
 20
-348.0137352483592
 40
0.3333333333333141
 50
240.0183606311471
 51
420.0183606311663
 73
     0
 72
     1
 10
-267.2375931987416
 20
-348.3024637770421
 11
-268.5709265320748
 21
-349.0716945462727
 72
     2
 10
-268.7375006832381
 20
-348.7829660175898
 40
0.3333333333332007
 50
60.01836063113244
 51
180.0
 73
     0
 72
     1
 10
-269.0708340165713
 20
-348.7829660175898
 11
-269.0708340165713
 21
-343.9379656972551
 72
     2
 10
-268.7375006832381
 20
-343.9379656972551
 40
0.3333333333333292
 50
180.0
 51
299.9816393688773
 73
     0
 72
     1
 10
-268.5709265320748
 20
-343.6492371685723
 11
-267.2375931987416
 21
-344.4184679378029
 72
     2
 10
-267.4041673499047
 20
-344.7071964664858
 40
0.3333333333334277
 50
299.9816393688337
 51
479.9816393688675
 73
     0
 97
       14
330
72
330
98
330
5B
330
99
330
79
330
93
330
78
330
77
330
76
330
92
330
75
330
74
330
73
330
91
 75
     0
 76
     1
 98
        1
 10
0.0
 20
0.0
  0
ENDBLK
  5
49
330
47
100
AcDbEntity
  8
0
100
AcDbBlockEnd
  0
BLOCK
  5
4C
330
4A
100
AcDbEntity
  8
0
100
AcDbBlockBegin
  2
A4_oriz
 70
     0
 10
-126.5402340193237
 20
-179.4302329287112
 30
0.0
  3
A4_oriz
  1

  0
INSERT
  5
4B
330
4A
100
AcDbEntity
  8
1
100
AcDbBlockReference
  2
_formato_A4
 10
-126.5402340193237
 20
-179.4302329287113
 30
0.0
 41
0.5
 42
0.5
 43
0.5
  0
ENDBLK
  5
4D
330
4A
100
AcDbEntity
  8
0
100
AcDbBlockEnd
  0
BLOCK
  5
17C
330
174
100
AcDbEntity
  8
0
100
AcDbBlockBegin
  2
*D3
 70
     1
 10
0.0
 20
0.0
 30
0.0
  3
*D3
  1

  0
LINE
  5
175
330
174
100
AcDbEntity
  8
1
  6
Continuous
 62
     2
100
AcDbLine
 10
-222.5261793577674
 20
-89.88611580532358
 30
0.0
 11
-202.5261793577674
 21
-89.88611580532358
 31
0.0
  0
LINE
  5
176
330
174
100
AcDbEntity
  8
1
  6
Continuous
 62
     2
100
AcDbLine
 10
-222.5261793577674
 20
-93.42498298830085
 30
0.0
 11
-222.5261793577674
 21
-89.38611580532358
 31
0.0
  0
LINE
  5
177
330
174
100
AcDbEntity
  8
1
  6
Continuous
 62
     2
100
AcDbLine
 10
-202.5261793577674
 20
-93.42498298830085
 30
0.0
 11
-202.5261793577674
 21
-89.38611580532358
 31
0.0
  0
SOLID
  5
178
330
174
100
AcDbEntity
  8
1
 62
     2
100
AcDbTrace
 10
-221.0261793577674
 20
-89.68863705894249
 30
0.0
 11
-221.0261793577674
 21
-90.08359455170468
 31
0.0
 12
-222.5261793577674
 22
-89.88611580532358
 32
0.0
 13
-222.5261793577674
 23
-89.88611580532358
 33
0.0
  0
SOLID
  5
179
330
174
100
AcDbEntity
  8
1
 62
     2
100
AcDbTrace
 10
-204.0261793577674
 20
-90.08359455170468
 30
0.0
 11
-204.0261793577674
 21
-89.68863705894249
 31
0.0
 12
-202.5261793577674
 22
-89.88611580532358
 32
0.0
 13
-202.5261793577674
 23
-89.88611580532358
 33
0.0
  0
MTEXT
  5
17B
330
174
100
AcDbEntity
  8
1
 62
     4
100
AcDbMText
 10
-213.6511793577674
 20
-88.88611580532358
 30
0.0
 40
1.5
 41
0.0
 71
     7
 72
     1
  1
20
  7
CONVERTER_12
 11
0.9999999999970619
 21
2.424068405545306E-6
 31
0.0
 73
     1
 44
0.60024009603842
  0
ENDBLK
  5
17D
330
174
100
AcDbEntity
  8
0
100
AcDbBlockEnd
  0
BLOCK
  5
187
330
180
100
AcDbEntity
  8
0
100
AcDbBlockBegin
  2
*D4
 70
     1
 10
0.0
 20
0.0
 30
0.0
  3
*D4
  1

  0
LINE
  5
181
330
180
100
AcDbEntity
  8
1
  6
Continuous
 62
     2
100
AcDbLine
 10
-252.5261793577674
 20
-89.4288001335375
 30
0.0
 11
-237.5261793577674
 21
-89.4288001335375
 31
0.0
  0
LINE
  5
182
330
180
100
AcDbEntity
  8
1
  6
Continuous
 62
     2
100
AcDbLine
 10
-252.5261793577674
 20
-93.42498298830085
 30
0.0
 11
-252.5261793577674
 21
-88.9288001335375
 31
0.0
  0
LINE
  5
183
330
180
100
AcDbEntity
  8
1
  6
Continuous
 62
     2
100
AcDbLine
 10
-237.5261793577674
 20
-93.42498298830085
 30
0.0
 11
-237.5261793577674
 21
-88.9288001335375
 31
0.0
  0
SOLID
  5
184
330
180
100
AcDbEntity
  8
1
 62
     2
100
AcDbTrace
 10
-251.0261793577674
 20
-89.2313213871564
 30
0.0
 11
-251.0261793577674
 21
-89.62627887991859
 31
0.0
 12
-252.5261793577674
 22
-89.4288001335375
 32
0.0
 13
-252.5261793577674
 23
-89.4288001335375
 33
0.0
  0
SOLID
  5
185
330
180
100
AcDbEntity
  8
1
 62
     2
100
AcDbTrace
 10
-239.0261793577674
 20
-89.62627887991859
 30
0.0
 11
-239.0261793577674
 21
-89.2313213871564
 31
0.0
 12
-237.5261793577674
 22
-89.4288001335375
 32
0.0
 13
-237.5261793577674
 23
-89.4288001335375
 33
0.0
  0
MTEXT
  5
186
330
180
100
AcDbEntity
  8
1
 62
     4
100
AcDbMText
 10
-245.9261793577674
 20
-88.4288001335375
 30
0.0
 40
1.5
 41
0.0
 71
     7
 72
     1
  1
15
  7
CONVERTER_12
 11
0.9999999999970619
 21
2.424068405545306E-6
 31
0.0
 73
     1
 44
0.60024009603842
  0
ENDBLK
  5
188
330
180
100
AcDbEntity
  8
0
100
AcDbBlockEnd
  0
BLOCK
  5
192
330
18B
100
AcDbEntity
  8
0
100
AcDbBlockBegin
  2
*D5
 70
     1
 10
0.0
 20
0.0
 30
0.0
  3
*D5
  1

  0
LINE
  5
18C
330
18B
100
AcDbEntity
  8
1
  6
Continuous
 62
     2
100
AcDbLine
 10
-261.5259352618375
 20
-149.013494635534
 30
0.0
 11
-168.526423453698
 21
-149.013494635534
 31
0.0
  0
LINE
  5
18D
330
18B
100
AcDbEntity
  8
1
  6
Continuous
 62
     2
100
AcDbLine
 10
-261.5259352618375
 20
-146.3312287837086
 30
0.0
 11
-261.5259352618375
 21
-149.513494635534
 31
0.0
  0
LINE
  5
18E
330
18B
100
AcDbEntity
  8
1
  6
Continuous
 62
     2
100
AcDbLine
 10
-168.526423453698
 20
-146.3312287837086
 30
0.0
 11
-168.526423453698
 21
-149.513494635534
 31
0.0
  0
SOLID
  5
18F
330
18B
100
AcDbEntity
  8
1
 62
     2
100
AcDbTrace
 10
-260.0259352618375
 20
-148.8160158891529
 30
0.0
 11
-260.0259352618375
 21
-149.2109733819151
 31
0.0
 12
-261.5259352618375
 22
-149.013494635534
 32
0.0
 13
-261.5259352618375
 23
-149.013494635534
 33
0.0
  0
SOLID
  5
190
330
18B
100
AcDbEntity
  8
1
 62
     2
100
AcDbTrace
 10
-170.026423453698
 20
-149.2109733819151
 30
0.0
 11
-170.026423453698
 21
-148.8160158891529
 31
0.0
 12
-168.526423453698
 22
-149.013494635534
 32
0.0
 13
-168.526423453698
 23
-149.013494635534
 33
0.0
  0
MTEXT
  5
191
330
18B
100
AcDbEntity
  8
1
 62
     4
100
AcDbMText
 10
-216.1511793577677
 20
-148.013494635534
 30
0.0
 40
1.5
 41
0.0
 71
     7
 72
     1
  1
93
  7
CONVERTER_12
 11
0.9999999999970619
 21
2.424068405545306E-6
 31
0.0
 73
     1
 44
0.60024009603842
  0
ENDBLK
  5
193
330
18B
100
AcDbEntity
  8
0
100
AcDbBlockEnd
  0
BLOCK
  5
19D
330
196
100
AcDbEntity
  8
0
100
AcDbBlockBegin
  2
*D6
 70
     1
 10
0.0
 20
0.0
 30
0.0
  3
*D6
  1

  0
LINE
  5
197
330
196
100
AcDbEntity
  8
1
  6
Continuous
 62
     2
100
AcDbLine
 10
-267.037079175049
 20
-114.0812287837085
 30
0.0
 11
-267.037079175049
 21
-146.0812287837085
 31
0.0
  0
LINE
  5
198
330
196
100
AcDbEntity
  8
1
  6
Continuous
 62
     2
100
AcDbLine
 10
-263.7759352618368
 20
-114.0812287837085
 30
0.0
 11
-267.537079175049
 21
-114.0812287837085
 31
0.0
  0
LINE
  5
199
330
196
100
AcDbEntity
  8
1
  6
Continuous
 62
     2
100
AcDbLine
 10
-263.7759352618374
 20
-146.0812287837085
 30
0.0
 11
-267.537079175049
 21
-146.0812287837085
 31
0.0
  0
SOLID
  5
19A
330
196
100
AcDbEntity
  8
1
 62
     2
100
AcDbTrace
 10
-266.8396004286679
 20
-115.5812287837085
 30
0.0
 11
-267.2345579214301
 21
-115.5812287837085
 31
0.0
 12
-267.037079175049
 22
-114.0812287837085
 32
0.0
 13
-267.037079175049
 23
-114.0812287837085
 33
0.0
  0
SOLID
  5
19B
330
196
100
AcDbEntity
  8
1
 62
     2
100
AcDbTrace
 10
-267.2345579214301
 20
-144.5812287837085
 30
0.0
 11
-266.8396004286679
 21
-144.5812287837085
 31
0.0
 12
-267.037079175049
 22
-146.0812287837085
 32
0.0
 13
-267.037079175049
 23
-146.0812287837085
 33
0.0
  0
MTEXT
  5
19C
330
196
100
AcDbEntity
  8
1
 62
     4
100
AcDbMText
 10
-268.187079175049
 20
-132.1437287837085
 30
0.0
 40
1.5
 41
0.0
 71
     7
 72
     1
  1
46,5
  7
CONVERTER_12
 11
0.0
 21
1.0
 31
0.0
 73
     1
 44
0.60024009603842
  0
ENDBLK
  5
19E
330
196
100
AcDbEntity
  8
0
100
AcDbBlockEnd
  0
BLOCK
  5
1A8
330
1A1
100
AcDbEntity
  8
0
100
AcDbBlockBegin
  2
*D7
 70
     1
 10
0.0
 20
0.0
 30
0.0
  3
*D7
  1

  0
LINE
  5
1A2
330
1A1
100
AcDbEntity
  8
1
  6
Continuous
 62
     2
100
AcDbLine
 10
-164.295622258739
 20
-108.3499829883009
 30
0.0
 11
-164.295622258739
 21
-93.5499829883009
 31
0.0
  0
LINE
  5
1A3
330
1A1
100
AcDbEntity
  8
1
  6
Continuous
 62
     2
100
AcDbLine
 10
-177.2761793577674
 20
-108.3499829883009
 30
0.0
 11
-163.795622258739
 21
-108.3499829883009
 31
0.0
  0
LINE
  5
1A4
330
1A1
100
AcDbEntity
  8
1
  6
Continuous
 62
     2
100
AcDbLine
 10
-174.2761793577674
 20
-93.5499829883009
 30
0.0
 11
-163.795622258739
 21
-93.5499829883009
 31
0.0
  0
SOLID
  5
1A5
330
1A1
100
AcDbEntity
  8
1
 62
     2
100
AcDbTrace
 10
-164.4931010051201
 20
-106.8499829883009
 30
0.0
 11
-164.0981435123579
 21
-106.8499829883009
 31
0.0
 12
-164.295622258739
 22
-108.3499829883009
 32
0.0
 13
-164.295622258739
 23
-108.3499829883009
 33
0.0
  0
SOLID
  5
1A6
330
1A1
100
AcDbEntity
  8
1
 62
     2
100
AcDbTrace
 10
-164.0981435123579
 20
-95.0499829883009
 30
0.0
 11
-164.4931010051201
 21
-95.0499829883009
 31
0.0
 12
-164.295622258739
 22
-93.5499829883009
 32
0.0
 13
-164.295622258739
 23
-93.5499829883009
 33
0.0
  0
MTEXT
  5
1A7
330
1A1
100
AcDbEntity
  8
1
 62
     4
100
AcDbMText
 10
-165.445622258739
 20
-102.7874829883009
 30
0.0
 40
1.5
 41
0.0
 71
     7
 72
     1
  1
14,8
  7
CONVERTER_12
 11
0.0
 21
1.0
 31
0.0
 73
     1
 44
0.60024009603842
  0
ENDBLK
  5
1A9
330
1A1
100
AcDbEntity
  8
0
100
AcDbBlockEnd
  0
BLOCK
  5
1B3
330
1AC
100
AcDbEntity
  8
0
100
AcDbBlockBegin
  2
*D8
 70
     1
 10
0.0
 20
0.0
 30
0.0
  3
*D8
  1

  0
LINE
  5
1AD
330
1AC
100
AcDbEntity
  8
1
  6
Continuous
 62
     2
100
AcDbLine
 10
-150.7261793577674
 20
-91.0031812253433
 30
0.0
 11
-144.2261793577674
 21
-91.0031812253433
 31
0.0
  0
LINE
  5
1AE
330
1AC
100
AcDbEntity
  8
1
  6
Continuous
 62
     2
100
AcDbLine
 10
-150.7261793577674
 20
-93.29998298830084
 30
0.0
 11
-150.7261793577674
 21
-90.5031812253433
 31
0.0
  0
LINE
  5
1AF
330
1AC
100
AcDbEntity
  8
1
  6
Continuous
 62
     2
100
AcDbLine
 10
-144.2261793577674
 20
-136.9899825977076
 30
0.0
 11
-144.2261793577674
 21
-90.5031812253433
 31
0.0
  0
SOLID
  5
1B0
330
1AC
100
AcDbEntity
  8
1
 62
     2
100
AcDbTrace
 10
-149.2261793577674
 20
-90.8057024789622
 30
0.0
 11
-149.2261793577674
 21
-91.20065997172439
 31
0.0
 12
-150.7261793577674
 22
-91.0031812253433
 32
0.0
 13
-150.7261793577674
 23
-91.0031812253433
 33
0.0
  0
SOLID
  5
1B1
330
1AC
100
AcDbEntity
  8
1
 62
     2
100
AcDbTrace
 10
-145.7261793577674
 20
-91.20065997172439
 30
0.0
 11
-145.7261793577674
 21
-90.8057024789622
 31
0.0
 12
-144.2261793577674
 22
-91.0031812253433
 32
0.0
 13
-144.2261793577674
 23
-91.0031812253433
 33
0.0
  0
MTEXT
  5
1B2
330
1AC
100
AcDbEntity
  8
1
 62
     4
100
AcDbMText
 10
-148.8636793577674
 20
-89.85318122534329
 30
0.0
 40
1.5
 41
0.0
 71
     7
 72
     1
  1
6,5
  7
CONVERTER_12
 11
0.9999999999970619
 21
2.424068405545306E-6
 31
0.0
 73
     1
 44
0.60024009603842
  0
ENDBLK
  5
1B4
330
1AC
100
AcDbEntity
  8
0
100
AcDbBlockEnd
  0
BLOCK
  5
1BF
330
1B7
100
AcDbEntity
  8
0
100
AcDbBlockBegin
  2
*D9
 70
     1
 10
0.0
 20
0.0
 30
0.0
  3
*D9
  1

  0
LINE
  5
1B8
330
1B7
100
AcDbEntity
  8
1
  6
Continuous
 62
     2
100
AcDbLine
 10
-148.6761793577674
 20
-154.3426028182906
 30
0.0
 11
-139.7761793577674
 21
-154.3426028182906
 31
0.0
  0
LINE
  5
1B9
330
1B7
100
AcDbEntity
  8
1
  6
Continuous
 62
     2
100
AcDbLine
 10
-148.6761793577674
 20
-147.9712820518674
 30
0.0
 11
-148.6761793577674
 21
-154.8426028182906
 31
0.0
  0
LINE
  5
1BA
330
1B7
100
AcDbEntity
  8
1
  6
Continuous
 62
     2
100
AcDbLine
 10
-148.6761793577674
 20
-145.2999825977076
 30
0.0
 11
-148.6761793577674
 21
-145.7276937909039
 31
0.0
  0
LINE
  5
1BB
330
1B7
100
AcDbEntity
  8
1
  6
Continuous
 62
     2
100
AcDbLine
 10
-139.7761793577674
 20
-145.2999825977076
 30
0.0
 11
-139.7761793577674
 21
-154.8426028182906
 31
0.0
  0
SOLID
  5
1BC
330
1B7
100
AcDbEntity
  8
1
 62
     2
100
AcDbTrace
 10
-147.1761793577674
 20
-154.1451240719095
 30
0.0
 11
-147.1761793577674
 21
-154.5400815646717
 31
0.0
 12
-148.6761793577674
 22
-154.3426028182906
 32
0.0
 13
-148.6761793577674
 23
-154.3426028182906
 33
0.0
  0
SOLID
  5
1BD
330
1B7
100
AcDbEntity
  8
1
 62
     2
100
AcDbTrace
 10
-141.2761793577674
 20
-154.5400815646717
 30
0.0
 11
-141.2761793577674
 21
-154.1451240719095
 31
0.0
 12
-139.7761793577674
 22
-154.3426028182906
 32
0.0
 13
-139.7761793577674
 23
-154.3426028182906
 33
0.0
  0
MTEXT
  5
1BE
330
1B7
100
AcDbEntity
  8
1
 62
     4
100
AcDbMText
 10
-145.6886793577674
 20
-153.1926028182906
 30
0.0
 40
1.5
 41
0.0
 71
     7
 72
     1
  1
8,9
  7
CONVERTER_12
 11
0.9999999999970619
 21
2.424068405545306E-6
 31
0.0
 73
     1
 44
0.60024009603842
  0
ENDBLK
  5
1C0
330
1B7
100
AcDbEntity
  8
0
100
AcDbBlockEnd
  0
BLOCK
  5
1CA
330
1C3
100
AcDbEntity
  8
0
100
AcDbBlockBegin
  2
*D10
 70
     1
 10
0.0
 20
0.0
 30
0.0
  3
*D10
  1

  0
LINE
  5
1C4
330
1C3
100
AcDbEntity
  8
1
  6
Continuous
 62
     2
100
AcDbLine
 10
-157.519925403111
 20
-93.54998298830083
 30
0.0
 11
-157.519925403111
 21
-146.0499825977076
 31
0.0
  0
LINE
  5
1C5
330
1C3
100
AcDbEntity
  8
1
  6
Continuous
 62
     2
100
AcDbLine
 10
-152.9761793577674
 20
-93.54998298830083
 30
0.0
 11
-158.019925403111
 21
-93.54998298830083
 31
0.0
  0
LINE
  5
1C6
330
1C3
100
AcDbEntity
  8
1
  6
Continuous
 62
     2
100
AcDbLine
 10
-147.9261793577674
 20
-146.0499825977076
 30
0.0
 11
-158.019925403111
 21
-146.0499825977076
 31
0.0
  0
SOLID
  5
1C7
330
1C3
100
AcDbEntity
  8
1
 62
     2
100
AcDbTrace
 10
-157.3224466567299
 20
-95.04998298830083
 30
0.0
 11
-157.7174041494921
 21
-95.04998298830083
 31
0.0
 12
-157.519925403111
 22
-93.54998298830083
 32
0.0
 13
-157.519925403111
 23
-93.54998298830083
 33
0.0
  0
SOLID
  5
1C8
330
1C3
100
AcDbEntity
  8
1
 62
     2
100
AcDbTrace
 10
-157.7174041494921
 20
-144.5499825977076
 30
0.0
 11
-157.3224466567299
 21
-144.5499825977076
 31
0.0
 12
-157.519925403111
 22
-146.0499825977076
 32
0.0
 13
-157.519925403111
 23
-146.0499825977076
 33
0.0
  0
MTEXT
  5
1C9
330
1C3
100
AcDbEntity
  8
1
 62
     4
100
AcDbMText
 10
-158.519925403111
 20
-120.9249827930042
 30
0.0
 40
1.5
 41
0.0
 71
     7
 72
     1
  1
67
  7
CONVERTER_12
 11
0.0
 21
1.0
 31
0.0
 73
     1
 44
0.60024009603842
  0
ENDBLK
  5
1CB
330
1C3
100
AcDbEntity
  8
0
100
AcDbBlockEnd
  0
BLOCK
  5
1D4
330
1CE
100
AcDbEntity
  8
0
100
AcDbBlockBegin
  2
*D11
 70
     1
 10
0.0
 20
0.0
 30
0.0
  3
*D11
  1

  0
LINE
  5
1CF
330
1CE
100
AcDbEntity
  8
1
  6
Continuous
 62
     2
100
AcDbLine
 10
-260.2918056398739
 20
-107.1248443623356
 30
0.0
 11
-265.6418056398739
 21
-107.1248443623356
 31
0.0
  0
LINE
  5
1D0
330
1CE
100
AcDbEntity
  8
1
  6
Continuous
 62
     2
100
AcDbLine
 10
-246.3842603984584
 20
-98.75933781077288
 30
0.0
 11
-260.2918056398739
 21
-107.1248443623356
 31
0.0
  0
SOLID
  5
1D1
330
1CE
100
AcDbEntity
  8
1
 62
     2
100
AcDbTrace
 10
-252.9236171210984
 20
-102.9232676263841
 30
0.0
 11
-253.127196350945
 21
-102.5848198190872
 31
0.0
 12
-251.7400235739127
 22
-101.9808748365493
 32
0.0
 13
-251.7400235739127
 23
-101.9808748365493
 33
0.0
  0
SOLID
  5
1D2
330
1CE
100
AcDbEntity
  8
1
 62
     2
100
AcDbTrace
 10
-247.1287415944362
 20
-98.9766983502176
 30
0.0
 11
-246.9251623645896
 21
-99.31514615751448
 31
0.0
 12
-248.3123351416219
 22
-99.91909114005239
 32
0.0
 13
-248.3123351416219
 23
-99.91909114005239
 33
0.0
  0
MTEXT
  5
1D3
330
1CE
100
AcDbEntity
  8
1
 62
     4
100
AcDbMText
 10
-264.9218056398703
 20
-106.1248473439397
 30
0.0
 40
1.5
 41
0.0
 71
     7
 72
     1
  1
\C4;M\C4;4
  7
CONVERTER_12
 11
0.9999999999970619
 21
2.424068405545306E-6
 31
0.0
 73
     1
 44
0.60024009603842
  0
ENDBLK
  5
1D5
330
1CE
100
AcDbEntity
  8
0
100
AcDbBlockEnd
  0
BLOCK
  5
1DD
330
1D7
100
AcDbEntity
  8
0
100
AcDbBlockBegin
  2
*D12
 70
     1
 10
0.0
 20
0.0
 30
0.0
  3
*D12
  1

  0
LINE
  5
1D8
330
1D7
100
AcDbEntity
  8
1
  6
Continuous
 62
     2
100
AcDbLine
 10
-260.4621000711727
 20
-98.79998298830085
 30
0.0
 11
-265.8121000711727
 21
-98.79998298830085
 31
0.0
  0
LINE
  5
1D9
330
1D7
100
AcDbEntity
  8
1
  6
Continuous
 62
     2
100
AcDbLine
 10
-248.8641598153624
 20
-96.24244792959198
 30
0.0
 11
-260.4621000711727
 21
-98.79998298830085
 31
0.0
  0
SOLID
  5
1DA
330
1D7
100
AcDbEntity
  8
1
 62
     2
100
AcDbTrace
 10
-255.413269388744
 20
-97.88885664285655
 30
0.0
 11
-255.4983205946387
 21
-97.50316542767938
 31
0.0
 12
-253.9909871747294
 22
-97.3729970117844
 32
0.0
 13
-253.9909871747294
 23
-97.3729970117844
 33
0.0
  0
SOLID
  5
1DB
330
1D7
100
AcDbEntity
  8
1
 62
     2
100
AcDbTrace
 10
-249.6390893267908
 20
-96.21110933374516
 30
0.0
 11
-249.554038120896
 21
-96.59680054892233
 31
0.0
 12
-251.0613715408054
 22
-96.7269689648173
 32
0.0
 13
-251.0613715408054
 23
-96.7269689648173
 33
0.0
  0
MTEXT
  5
1DC
330
1D7
100
AcDbEntity
  8
1
 62
     4
100
AcDbMText
 10
-265.0921000711691
 20
-97.799985969905
 30
0.0
 40
1.5
 41
0.0
 71
     7
 72
     1
  1
\C4;M\C4;3
  7
CONVERTER_12
 11
0.9999999999970619
 21
2.424068405545306E-6
 31
0.0
 73
     1
 44
0.60024009603842
  0
ENDBLK
  5
1DE
330
1D7
100
AcDbEntity
  8
0
100
AcDbBlockEnd
  0
BLOCK
  5
1E6
330
1E0
100
AcDbEntity
  8
0
100
AcDbBlockBegin
  2
*D13
 70
     1
 10
0.0
 20
0.0
 30
0.0
  3
*D13
  1

  0
LINE
  5
1E1
330
1E0
100
AcDbEntity
  8
1
  6
Continuous
 62
     2
100
AcDbLine
 10
-137.6064336118101
 20
-143.3749825977076
 30
0.0
 11
-130.6814336118101
 21
-143.3749825977076
 31
0.0
  0
LINE
  5
1E2
330
1E0
100
AcDbEntity
  8
1
  6
Continuous
 62
     2
100
AcDbLine
 10
-148.4197318004988
 20
-140.3938606707199
 30
0.0
 11
-137.6064336118101
 21
-143.3749825977076
 31
0.0
  0
SOLID
  5
1E3
330
1E0
100
AcDbEntity
  8
1
 62
     2
100
AcDbTrace
 10
-140.7031682537126
 20
-142.3163967259563
 30
0.0
 11
-140.8081381428185
 21
-142.6971495899903
 31
0.0
 12
-142.2017057647247
 22
-142.1081104245293
 32
0.0
 13
-142.2017057647247
 23
-142.1081104245293
 33
0.0
  0
SOLID
  5
1E4
330
1E0
100
AcDbEntity
  8
1
 62
     2
100
AcDbTrace
 10
-147.7491904618221
 20
-140.7835684694589
 30
0.0
 11
-147.6442205727163
 21
-140.4028156054249
 31
0.0
 12
-146.2506529508101
 22
-140.991854770886
 32
0.0
 13
-146.2506529508101
 23
-140.991854770886
 33
0.0
  0
MTEXT
  5
1E5
330
1E0
100
AcDbEntity
  8
1
 62
     4
100
AcDbMText
 10
-134.6864336118065
 20
-142.2249855793117
 30
0.0
 40
1.5
 41
0.0
 71
     7
 72
     1
  1
\C4;\U+00f8\C4;4,2
  7
CONVERTER_12
 11
0.9999999999970619
 21
2.424068405545306E-6
 31
0.0
 73
     1
 44
0.60024009603842
  0
ENDBLK
  5
1E7
330
1E0
100
AcDbEntity
  8
0
100
AcDbBlockEnd
  0
ENDSEC
  0
SECTION
  2
ENTITIES
  0
INSERT
  5
4E
330
1F
100
AcDbEntity
  8
0
100
AcDbBlockReference
  2
A4_oriz
 10
-126.5402340193237
 20
-179.4302329287112
 30
0.0
  0
LINE
  5
A7
330
1F
100
AcDbEntity
  8
1
  6
Continuous
 62
     7
100
AcDbLine
 10
-169.026423453698
 20
-117.5499825977076
 30
0.0
 11
-168.5264234536979
 21
-117.5499825977076
 31
0.0
  0
LINE
  5
A8
330
1F
100
AcDbEntity
  8
1
  6
Continuous
 62
     7
100
AcDbLine
 10
-169.026423453698
 20
-114.0656018762436
 30
0.0
 11
-168.526423453698
 21
-114.0812287837086
 31
0.0
  0
LINE
  5
A9
330
1F
100
AcDbEntity
  8
1
  6
Continuous
 62
     2
100
AcDbLine
 10
-169.026423453698
 20
-117.5499825977076
 30
0.0
 11
-169.026423453698
 21
-114.0656018762436
 31
0.0
  0
LINE
  5
AA
330
1F
100
AcDbEntity
  8
1
  6
Continuous
 62
     7
100
AcDbLine
 10
-169.0873482490381
 20
-117.5499825977076
 30
0.0
 11
-169.026423453698
 21
-117.5499825977076
 31
0.0
  0
LINE
  5
AB
330
1F
100
AcDbEntity
  8
0
  6
Continuous
 62
     7
100
AcDbLine
 10
-168.5264234536979
 20
-117.5499825977076
 30
0.0
 11
-168.5264234536979
 21
-117.5812287837086
 31
0.0
  0
LINE
  5
AC
330
1F
100
AcDbEntity
  8
1
  6
Continuous
 62
     7
100
AcDbLine
 10
-169.5261793577674
 20
-114.0499825977076
 30
0.0
 11
-169.026423453698
 21
-114.0656018762436
 31
0.0
  0
LINE
  5
AD
330
1F
100
AcDbEntity
  8
1
  6
Continuous
 62
     7
100
AcDbLine
 10
-261.0259352618367
 20
-117.5499825977076
 30
0.0
 11
-261.5195317917608
 21
-117.5499825977076
 31
0.0
  0
LINE
  5
AE
330
1F
100
AcDbEntity
  8
1
  6
Continuous
 62
     7
100
AcDbLine
 10
-261.0259352618369
 20
-114.0656018762436
 30
0.0
 11
-261.5259352618368
 21
-114.0812287837086
 31
0.0
  0
LINE
  5
AF
330
1F
100
AcDbEntity
  8
1
  6
Continuous
 62
     2
100
AcDbLine
 10
-261.0259352618367
 20
-117.5499825977076
 30
0.0
 11
-261.0259352618369
 21
-114.0656018762436
 31
0.0
  0
LINE
  5
B0
330
1F
100
AcDbEntity
  8
1
  6
Continuous
 62
     7
100
AcDbLine
 10
-260.9650104664966
 20
-117.5499825977076
 30
0.0
 11
-261.0259352618367
 21
-117.5499825977076
 31
0.0
  0
LINE
  5
B1
330
1F
100
AcDbEntity
  8
1
  6
Continuous
 62
     7
100
AcDbLine
 10
-260.5261793577674
 20
-114.0499825977076
 30
0.0
 11
-261.0259352618369
 21
-114.0656018762436
 31
0.0
  0
LINE
  5
B2
330
1F
100
AcDbEntity
  8
1
  6
DOT_CENTER
 62
     2
100
AcDbLine
 10
-215.0261793577674
 20
-108.7658128495834
 30
0.0
 11
-215.0261793577674
 21
-111.2436795551096
 31
0.0
  0
LINE
  5
B3
330
1F
100
AcDbEntity
  8
0
  6
Continuous
 62
     7
100
AcDbLine
 10
-171.5261793577674
 20
-117.5499825977076
 30
0.0
 11
-169.0873482490381
 21
-117.5499825977076
 31
0.0
  0
LINE
  5
B4
330
1F
100
AcDbEntity
  8
0
  6
Continuous
 62
     7
100
AcDbLine
 10
-168.5264234536979
 20
-117.5817619318623
 30
0.0
 11
-168.526423453698
 21
-124.5725625936481
 31
0.0
  0
LINE
  5
B5
330
1F
100
AcDbEntity
  8
0
  6
Continuous
 62
     7
100
AcDbLine
 10
-260.9650104664966
 20
-117.5499825977076
 30
0.0
 11
-258.5261793577674
 21
-117.5499825977076
 31
0.0
  0
LINE
  5
B6
330
1F
100
AcDbEntity
  8
0
  6
Continuous
 62
     7
100
AcDbLine
 10
-261.5259352618368
 20
-117.5817619318623
 30
0.0
 11
-261.5259352618371
 21
-124.5725625936481
 31
0.0
  0
LINE
  5
B7
330
1F
100
AcDbEntity
  8
0
  6
Continuous
 62
     7
100
AcDbLine
 10
-168.5328269237738
 20
-117.5812229259282
 30
0.0
 11
-168.5328278992018
 21
-117.5817560731895
 31
0.0
  0
LINE
  5
B8
330
1F
100
AcDbEntity
  8
1
  6
DOT_CENTER
 62
     2
100
AcDbLine
 10
-259.5259352618373
 20
-141.5812287837086
 30
0.0
 11
-265.5259352618373
 21
-141.5812287837085
 31
0.0
  0
LINE
  5
B9
330
1F
100
AcDbEntity
  8
1
  6
DOT_CENTER
 62
     2
100
AcDbLine
 10
-164.526423453698
 20
-141.5812287837086
 30
0.0
 11
-170.526423453698
 21
-141.5812287837086
 31
0.0
  0
LINE
  5
BA
330
1F
100
AcDbEntity
  8
1
  6
DOT_CENTER
 62
     2
100
AcDbLine
 10
-177.5261793577674
 20
-101.4749829883008
 30
0.0
 11
-177.5261793577674
 21
-108.2249829883008
 31
0.0
  0
LINE
  5
BB
330
1F
100
AcDbEntity
  8
1
  6
DOT_CENTER
 62
     2
100
AcDbLine
 10
-174.1511793577674
 20
-104.8499829883008
 30
0.0
 11
-180.9011793577674
 21
-104.8499829883008
 31
0.0
  0
LINE
  5
BC
330
1F
100
AcDbEntity
  8
1
  6
DOT_CENTER
 62
     2
100
AcDbLine
 10
-177.5261793577674
 20
-93.67498298830085
 30
0.0
 11
-177.5261793577674
 21
-100.4249829883008
 31
0.0
  0
LINE
  5
BD
330
1F
100
AcDbEntity
  8
1
  6
DOT_CENTER
 62
     2
100
AcDbLine
 10
-174.1511793577674
 20
-97.04998298830085
 30
0.0
 11
-180.9011793577674
 21
-97.04998298830085
 31
0.0
  0
LINE
  5
BE
330
1F
100
AcDbEntity
  8
1
  6
DOT_CENTER
 62
     2
100
AcDbLine
 10
-180.0261793577674
 20
-97.13498298830083
 30
0.0
 11
-180.0261793577674
 21
-104.7649829883008
 31
0.0
  0
LINE
  5
BF
330
1F
100
AcDbEntity
  8
1
  6
DOT_CENTER
 62
     2
100
AcDbLine
 10
-176.2111793577674
 20
-100.9499829883008
 30
0.0
 11
-183.8411793577674
 21
-100.9499829883008
 31
0.0
  0
LINE
  5
C0
330
1F
100
AcDbEntity
  8
1
  6
DOT_CENTER
 62
     2
100
AcDbLine
 10
-187.5261793577674
 20
-101.4749829883008
 30
0.0
 11
-187.5261793577674
 21
-108.2249829883008
 31
0.0
  0
LINE
  5
C1
330
1F
100
AcDbEntity
  8
1
  6
DOT_CENTER
 62
     2
100
AcDbLine
 10
-184.1511793577674
 20
-104.8499829883008
 30
0.0
 11
-190.9011793577674
 21
-104.8499829883008
 31
0.0
  0
LINE
  5
C2
330
1F
100
AcDbEntity
  8
1
  6
DOT_CENTER
 62
     2
100
AcDbLine
 10
-192.5261793577674
 20
-101.4749829883008
 30
0.0
 11
-192.5261793577674
 21
-108.2249829883008
 31
0.0
  0
LINE
  5
C3
330
1F
100
AcDbEntity
  8
1
  6
DOT_CENTER
 62
     2
100
AcDbLine
 10
-189.1511793577674
 20
-104.8499829883008
 30
0.0
 11
-195.9011793577674
 21
-104.8499829883008
 31
0.0
  0
LINE
  5
C4
330
1F
100
AcDbEntity
  8
1
  6
DOT_CENTER
 62
     2
100
AcDbLine
 10
-192.5261793577674
 20
-93.67498298830085
 30
0.0
 11
-192.5261793577674
 21
-100.4249829883008
 31
0.0
  0
LINE
  5
C5
330
1F
100
AcDbEntity
  8
1
  6
DOT_CENTER
 62
     2
100
AcDbLine
 10
-189.1511793577674
 20
-97.04998298830085
 30
0.0
 11
-195.9011793577674
 21
-97.04998298830085
 31
0.0
  0
LINE
  5
C6
330
1F
100
AcDbEntity
  8
1
  6
DOT_CENTER
 62
     2
100
AcDbLine
 10
-197.5261793577674
 20
-101.4749829883008
 30
0.0
 11
-197.5261793577674
 21
-108.2249829883008
 31
0.0
  0
LINE
  5
C7
330
1F
100
AcDbEntity
  8
1
  6
DOT_CENTER
 62
     2
100
AcDbLine
 10
-194.1511793577674
 20
-104.8499829883008
 30
0.0
 11
-200.9011793577674
 21
-104.8499829883008
 31
0.0
  0
LINE
  5
C8
330
1F
100
AcDbEntity
  8
1
  6
DOT_CENTER
 62
     2
100
AcDbLine
 10
-199.0261793577674
 20
-97.13498298830083
 30
0.0
 11
-199.0261793577674
 21
-104.7649829883008
 31
0.0
  0
LINE
  5
C9
330
1F
100
AcDbEntity
  8
1
  6
DOT_CENTER
 62
     2
100
AcDbLine
 10
-195.2111793577674
 20
-100.9499829883008
 30
0.0
 11
-202.8411793577674
 21
-100.9499829883008
 31
0.0
  0
LINE
  5
CA
330
1F
100
AcDbEntity
  8
1
  6
DOT_CENTER
 62
     2
100
AcDbLine
 10
-202.5261793577674
 20
-93.67498298830085
 30
0.0
 11
-202.5261793577674
 21
-100.4249829883008
 31
0.0
  0
LINE
  5
CB
330
1F
100
AcDbEntity
  8
1
  6
DOT_CENTER
 62
     2
100
AcDbLine
 10
-199.1511793577674
 20
-97.04998298830085
 30
0.0
 11
-205.9011793577674
 21
-97.04998298830085
 31
0.0
  0
LINE
  5
CC
330
1F
100
AcDbEntity
  8
1
  6
DOT_CENTER
 62
     2
100
AcDbLine
 10
-207.5261793577674
 20
-101.4749829883008
 30
0.0
 11
-207.5261793577674
 21
-108.2249829883008
 31
0.0
  0
LINE
  5
CD
330
1F
100
AcDbEntity
  8
1
  6
DOT_CENTER
 62
     2
100
AcDbLine
 10
-204.1511793577674
 20
-104.8499829883008
 30
0.0
 11
-210.9011793577674
 21
-104.8499829883008
 31
0.0
  0
LINE
  5
CE
330
1F
100
AcDbEntity
  8
1
  6
DOT_CENTER
 62
     2
100
AcDbLine
 10
-210.0261793577674
 20
-97.13498298830083
 30
0.0
 11
-210.0261793577674
 21
-104.7649829883008
 31
0.0
  0
LINE
  5
CF
330
1F
100
AcDbEntity
  8
1
  6
DOT_CENTER
 62
     2
100
AcDbLine
 10
-206.2111793577674
 20
-100.9499829883008
 30
0.0
 11
-213.8411793577674
 21
-100.9499829883008
 31
0.0
  0
LINE
  5
D0
330
1F
100
AcDbEntity
  8
1
  6
DOT_CENTER
 62
     2
100
AcDbLine
 10
-207.5261793577674
 20
-93.67498298830085
 30
0.0
 11
-207.5261793577674
 21
-100.4249829883008
 31
0.0
  0
LINE
  5
D1
330
1F
100
AcDbEntity
  8
1
  6
DOT_CENTER
 62
     2
100
AcDbLine
 10
-204.1511793577674
 20
-97.04998298830085
 30
0.0
 11
-210.9011793577674
 21
-97.04998298830085
 31
0.0
  0
LINE
  5
D2
330
1F
100
AcDbEntity
  8
1
  6
DOT_CENTER
 62
     2
100
AcDbLine
 10
-252.5261793577674
 20
-101.4749829883008
 30
0.0
 11
-252.5261793577674
 21
-108.2249829883008
 31
0.0
  0
LINE
  5
D3
330
1F
100
AcDbEntity
  8
1
  6
DOT_CENTER
 62
     2
100
AcDbLine
 10
-249.1511793577674
 20
-104.8499829883008
 30
0.0
 11
-255.9011793577674
 21
-104.8499829883008
 31
0.0
  0
LINE
  5
D4
330
1F
100
AcDbEntity
  8
1
  6
DOT_CENTER
 62
     2
100
AcDbLine
 10
-252.5261793577674
 20
-93.67498298830085
 30
0.0
 11
-252.5261793577674
 21
-100.4249829883008
 31
0.0
  0
LINE
  5
D5
330
1F
100
AcDbEntity
  8
1
  6
DOT_CENTER
 62
     2
100
AcDbLine
 10
-249.1511793577674
 20
-97.04998298830085
 30
0.0
 11
-255.9011793577674
 21
-97.04998298830085
 31
0.0
  0
LINE
  5
D6
330
1F
100
AcDbEntity
  8
1
  6
DOT_CENTER
 62
     2
100
AcDbLine
 10
-250.0261793577674
 20
-97.13498298830083
 30
0.0
 11
-250.0261793577674
 21
-104.7649829883008
 31
0.0
  0
LINE
  5
D7
330
1F
100
AcDbEntity
  8
1
  6
DOT_CENTER
 62
     2
100
AcDbLine
 10
-246.2111793577674
 20
-100.9499829883008
 30
0.0
 11
-253.8411793577674
 21
-100.9499829883008
 31
0.0
  0
LINE
  5
D8
330
1F
100
AcDbEntity
  8
1
  6
DOT_CENTER
 62
     2
100
AcDbLine
 10
-217.5261793577674
 20
-101.4749829883008
 30
0.0
 11
-217.5261793577674
 21
-108.2249829883008
 31
0.0
  0
LINE
  5
D9
330
1F
100
AcDbEntity
  8
1
  6
DOT_CENTER
 62
     2
100
AcDbLine
 10
-214.1511793577674
 20
-104.8499829883008
 30
0.0
 11
-220.9011793577674
 21
-104.8499829883008
 31
0.0
  0
LINE
  5
DA
330
1F
100
AcDbEntity
  8
1
  6
DOT_CENTER
 62
     2
100
AcDbLine
 10
-222.5261793577674
 20
-101.4749829883008
 30
0.0
 11
-222.5261793577674
 21
-108.2249829883008
 31
0.0
  0
LINE
  5
DB
330
1F
100
AcDbEntity
  8
1
  6
DOT_CENTER
 62
     2
100
AcDbLine
 10
-219.1511793577674
 20
-104.8499829883008
 30
0.0
 11
-225.9011793577674
 21
-104.8499829883008
 31
0.0
  0
LINE
  5
DC
330
1F
100
AcDbEntity
  8
1
  6
DOT_CENTER
 62
     2
100
AcDbLine
 10
-232.5261793577674
 20
-93.67498298830085
 30
0.0
 11
-232.5261793577674
 21
-100.4249829883008
 31
0.0
  0
LINE
  5
DD
330
1F
100
AcDbEntity
  8
1
  6
DOT_CENTER
 62
     2
100
AcDbLine
 10
-229.1511793577674
 20
-97.04998298830085
 30
0.0
 11
-235.9011793577674
 21
-97.04998298830085
 31
0.0
  0
LINE
  5
DE
330
1F
100
AcDbEntity
  8
1
  6
DOT_CENTER
 62
     2
100
AcDbLine
 10
-237.5261793577674
 20
-93.67498298830085
 30
0.0
 11
-237.5261793577674
 21
-100.4249829883008
 31
0.0
  0
LINE
  5
DF
330
1F
100
AcDbEntity
  8
1
  6
DOT_CENTER
 62
     2
100
AcDbLine
 10
-234.1511793577674
 20
-97.04998298830085
 30
0.0
 11
-240.9011793577674
 21
-97.04998298830085
 31
0.0
  0
LINE
  5
E0
330
1F
100
AcDbEntity
  8
1
  6
DOT_CENTER
 62
     2
100
AcDbLine
 10
-237.5261793577674
 20
-101.4749829883008
 30
0.0
 11
-237.5261793577674
 21
-108.2249829883008
 31
0.0
  0
LINE
  5
E1
330
1F
100
AcDbEntity
  8
1
  6
DOT_CENTER
 62
     2
100
AcDbLine
 10
-234.1511793577674
 20
-104.8499829883008
 30
0.0
 11
-240.9011793577674
 21
-104.8499829883008
 31
0.0
  0
LINE
  5
E2
330
1F
100
AcDbEntity
  8
1
  6
DOT_CENTER
 62
     2
100
AcDbLine
 10
-222.5261793577674
 20
-93.67498298830085
 30
0.0
 11
-222.5261793577674
 21
-100.4249829883008
 31
0.0
  0
LINE
  5
E3
330
1F
100
AcDbEntity
  8
1
  6
DOT_CENTER
 62
     2
100
AcDbLine
 10
-219.1511793577674
 20
-97.04998298830085
 30
0.0
 11
-225.9011793577674
 21
-97.04998298830085
 31
0.0
  0
LINE
  5
E4
330
1F
100
AcDbEntity
  8
1
  6
DOT_CENTER
 62
     2
100
AcDbLine
 10
-220.0261793577674
 20
-97.13498298830083
 30
0.0
 11
-220.0261793577674
 21
-104.7649829883008
 31
0.0
  0
LINE
  5
E5
330
1F
100
AcDbEntity
  8
1
  6
DOT_CENTER
 62
     2
100
AcDbLine
 10
-216.2111793577674
 20
-100.9499829883008
 30
0.0
 11
-223.8411793577674
 21
-100.9499829883008
 31
0.0
  0
LINE
  5
E6
330
1F
100
AcDbEntity
  8
1
  6
DOT_CENTER
 62
     2
100
AcDbLine
 10
-231.0261793577674
 20
-97.13498298830083
 30
0.0
 11
-231.0261793577674
 21
-104.7649829883008
 31
0.0
  0
LINE
  5
E7
330
1F
100
AcDbEntity
  8
1
  6
DOT_CENTER
 62
     2
100
AcDbLine
 10
-227.2111793577674
 20
-100.9499829883008
 30
0.0
 11
-234.8411793577674
 21
-100.9499829883008
 31
0.0
  0
LINE
  5
E8
330
1F
100
AcDbEntity
  8
0
  6
Continuous
 62
     7
100
AcDbLine
 10
-166.526423453698
 20
-145.0812287837086
 30
0.0
 11
-166.526423453698
 21
-146.0812287837086
 31
0.0
  0
LINE
  5
E9
330
1F
100
AcDbEntity
  8
0
  6
Continuous
 62
     7
100
AcDbLine
 10
-168.526423453698
 20
-145.0812287837086
 30
0.0
 11
-168.526423453698
 21
-146.0812287837086
 31
0.0
  0
LINE
  5
EA
330
1F
100
AcDbEntity
  8
0
  6
Continuous
 62
     2
100
AcDbLine
 10
-168.5264234536979
 20
-125.6078387740582
 30
0.0
 11
-166.5264234536979
 21
-125.6078387740582
 31
0.0
  0
LINE
  5
EB
330
1F
100
AcDbEntity
  8
0
  6
Continuous
 62
     2
100
AcDbLine
 10
-168.526423453698
 20
-145.0812287837086
 30
0.0
 11
-166.526423453698
 21
-145.0812287837086
 31
0.0
  0
LINE
  5
EC
330
1F
100
AcDbEntity
  8
0
  6
Continuous
 62
     7
100
AcDbLine
 10
-263.5259352618372
 20
-125.6078387740581
 30
0.0
 11
-261.5259352618371
 21
-125.6078387740581
 31
0.0
  0
LINE
  5
ED
330
1F
100
AcDbEntity
  8
0
  6
Continuous
 62
     2
100
AcDbLine
 10
-261.5259352618375
 20
-145.0812287837086
 30
0.0
 11
-263.5259352618375
 21
-145.0812287837085
 31
0.0
  0
LINE
  5
EE
330
1F
100
AcDbEntity
  8
0
  6
Continuous
 62
     7
100
AcDbLine
 10
-168.526423453698
 20
-146.0812287837086
 30
0.0
 11
-166.526423453698
 21
-146.0812287837086
 31
0.0
  0
LINE
  5
EF
330
1F
100
AcDbEntity
  8
0
  6
Continuous
 62
     7
100
AcDbLine
 10
-261.5259352618368
 20
-117.0459526032985
 30
0.0
 11
-261.5259352618369
 21
-117.5812287837086
 31
0.0
  0
LINE
  5
F0
330
1F
100
AcDbEntity
  8
0
  6
Continuous
 62
     7
100
AcDbLine
 10
-261.5259352618371
 20
-124.5725625936481
 30
0.0
 11
-261.5259352618371
 21
-125.6078387740581
 31
0.0
  0
LINE
  5
F1
330
1F
100
AcDbEntity
  8
0
  6
Continuous
 62
     7
100
AcDbLine
 10
-261.5195317917608
 20
-117.5812229259281
 30
0.0
 11
-261.5195308163328
 21
-117.5817560731895
 31
0.0
  0
LINE
  5
F2
330
1F
100
AcDbEntity
  8
0
  6
Continuous
 62
     7
100
AcDbLine
 10
-166.5264234536979
 20
-117.0459526032986
 30
0.0
 11
-166.526423453698
 21
-114.0812287837086
 31
0.0
  0
LINE
  5
F3
330
1F
100
AcDbEntity
  8
0
  6
Continuous
 62
     7
100
AcDbLine
 10
-166.526423453698
 20
-114.0812287837086
 30
0.0
 11
-168.526423453698
 21
-114.0812287837086
 31
0.0
  0
LINE
  5
F4
330
1F
100
AcDbEntity
  8
0
  6
Continuous
 62
     7
100
AcDbLine
 10
-168.526423453698
 20
-117.0459526032986
 30
0.0
 11
-168.526423453698
 21
-114.0812287837086
 31
0.0
  0
LINE
  5
F5
330
1F
100
AcDbEntity
  8
0
  6
Continuous
 62
     7
100
AcDbLine
 10
-252.5261793577674
 20
-108.3499829883008
 30
0.0
 11
-177.5261793577674
 21
-108.3499829883008
 31
0.0
  0
LINE
  5
F6
330
1F
100
AcDbEntity
  8
0
  6
Continuous
 62
     7
100
AcDbLine
 10
-261.5259352618368
 20
-114.0812287837086
 30
0.0
 11
-261.5259352618368
 21
-117.0459526032985
 31
0.0
  0
LINE
  5
F7
330
1F
100
AcDbEntity
  8
0
  6
Continuous
 62
     7
100
AcDbLine
 10
-254.5261793577674
 20
-110.3499829883008
 30
0.0
 11
-254.5261793577674
 21
-113.5499825977076
 31
0.0
  0
LINE
  5
F8
330
1F
100
AcDbEntity
  8
0
  6
Continuous
 62
     7
100
AcDbLine
 10
-258.5261793577674
 20
-96.54998298830085
 30
0.0
 11
-258.5261793577674
 21
-112.0499825977076
 31
0.0
  0
LINE
  5
F9
330
1F
100
AcDbEntity
  8
0
  6
Continuous
 62
     7
100
AcDbLine
 10
-261.0259962858194
 20
-114.0890403302088
 30
0.0
 11
-261.0259201310932
 21
-114.0890415201264
 31
0.0
  0
LINE
  5
FA
330
1F
100
AcDbEntity
  8
0
  6
Continuous
 62
     7
100
AcDbLine
 10
-263.5259352618375
 20
-146.0812287837085
 30
0.0
 11
-263.5259352618375
 21
-145.0812287837085
 31
0.0
  0
LINE
  5
FB
330
1F
100
AcDbEntity
  8
0
  6
Continuous
 62
     7
100
AcDbLine
 10
-261.5259352618375
 20
-146.0812287837086
 30
0.0
 11
-261.5259352618375
 21
-145.0812287837086
 31
0.0
  0
LINE
  5
FC
330
1F
100
AcDbEntity
  8
0
  6
Continuous
 62
     7
100
AcDbLine
 10
-263.5259352618371
 20
-124.572562593648
 30
0.0
 11
-263.5259352618372
 21
-125.6078387740581
 31
0.0
  0
LINE
  5
FD
330
1F
100
AcDbEntity
  8
0
  6
Continuous
 62
     7
100
AcDbLine
 10
-261.5259352618375
 20
-146.0812287837086
 30
0.0
 11
-263.5259352618375
 21
-146.0812287837085
 31
0.0
  0
LINE
  5
FE
330
1F
100
AcDbEntity
  8
0
  6
Continuous
 62
     2
100
AcDbLine
 10
-263.5259352618371
 20
-124.572562593648
 30
0.0
 11
-261.5259352618371
 21
-124.5725625936481
 31
0.0
  0
LINE
  5
FF
330
1F
100
AcDbEntity
  8
0
  6
Continuous
 62
     2
100
AcDbLine
 10
-168.526423453698
 20
-124.5725625936481
 30
0.0
 11
-166.526423453698
 21
-124.5725625936481
 31
0.0
  0
LINE
  5
100
330
1F
100
AcDbEntity
  8
0
  6
Continuous
 62
     7
100
AcDbLine
 10
-168.526423453698
 20
-124.5725625936481
 30
0.0
 11
-168.5264234536979
 21
-125.6078387740582
 31
0.0
  0
LINE
  5
101
330
1F
100
AcDbEntity
  8
0
  6
Continuous
 62
     7
100
AcDbLine
 10
-166.526423453698
 20
-124.5725625936481
 30
0.0
 11
-166.5264234536979
 21
-125.6078387740582
 31
0.0
  0
LINE
  5
102
330
1F
100
AcDbEntity
  8
0
  6
Continuous
 62
     7
100
AcDbLine
 10
-263.5259352618368
 20
-114.0812287837085
 30
0.0
 11
-261.5259352618368
 21
-114.0812287837086
 31
0.0
  0
LINE
  5
103
330
1F
100
AcDbEntity
  8
0
  6
Continuous
 62
     7
100
AcDbLine
 10
-263.5259352618368
 20
-117.0459526032984
 30
0.0
 11
-263.5259352618371
 21
-124.572562593648
 31
0.0
  0
LINE
  5
104
330
1F
100
AcDbEntity
  8
0
  6
Continuous
 62
     7
100
AcDbLine
 10
-263.5259352618368
 20
-114.0812287837085
 30
0.0
 11
-263.5259352618368
 21
-117.0459526032984
 31
0.0
  0
LINE
  5
105
330
1F
100
AcDbEntity
  8
0
  6
Continuous
 62
     7
100
AcDbLine
 10
-174.5261793577674
 20
-93.54998298830085
 30
0.0
 11
-255.5261793577674
 21
-93.54998298830085
 31
0.0
  0
LINE
  5
106
330
1F
100
AcDbEntity
  8
0
  6
Continuous
 62
     7
100
AcDbLine
 10
-171.5261793577674
 20
-112.0499825977076
 30
0.0
 11
-171.5261793577674
 21
-96.54998298830085
 31
0.0
  0
LINE
  5
107
330
1F
100
AcDbEntity
  8
0
  6
Continuous
 62
     7
100
AcDbLine
 10
-169.0263624297153
 20
-114.0890403302089
 30
0.0
 11
-169.0264385844416
 21
-114.0890415201265
 31
0.0
  0
LINE
  5
108
330
1F
100
AcDbEntity
  8
0
  6
Continuous
 62
     7
100
AcDbLine
 10
-175.5261793577674
 20
-113.5499825977076
 30
0.0
 11
-175.5261793577674
 21
-110.3499829883008
 31
0.0
  0
LINE
  5
109
330
1F
100
AcDbEntity
  8
0
  6
Continuous
 62
     7
100
AcDbLine
 10
-168.526423453698
 20
-117.0459526032986
 30
0.0
 11
-168.5264234536979
 21
-117.5499825977076
 31
0.0
  0
LINE
  5
10A
330
1F
100
AcDbEntity
  8
0
  6
Continuous
 62
     7
100
AcDbLine
 10
-166.5264234536979
 20
-117.0459526032986
 30
0.0
 11
-166.526423453698
 21
-124.5725625936481
 31
0.0
  0
LINE
  5
10B
330
1F
100
AcDbEntity
  8
0
  6
Continuous
 62
     2
100
AcDbLine
 10
-263.5259352618368
 20
-117.0459526032984
 30
0.0
 11
-261.5259352618368
 21
-117.0459526032985
 31
0.0
  0
LINE
  5
10C
330
1F
100
AcDbEntity
  8
0
  6
Continuous
 62
     2
100
AcDbLine
 10
-166.5264234536979
 20
-117.0459526032986
 30
0.0
 11
-168.526423453698
 21
-117.0459526032986
 31
0.0
  0
LINE
  5
10D
330
1F
100
AcDbEntity
  8
1
  6
DOT_CENTER
 62
     2
100
AcDbLine
 10
-144.2261793577674
 20
-137.2399825977076
 30
0.0
 11
-144.2261793577674
 21
-145.8599825977076
 31
0.0
  0
LINE
  5
10E
330
1F
100
AcDbEntity
  8
1
  6
DOT_CENTER
 62
     2
100
AcDbLine
 10
-139.9161793577674
 20
-141.5499825977076
 30
0.0
 11
-148.5361793577674
 21
-141.5499825977076
 31
0.0
  0
LINE
  5
10F
330
1F
100
AcDbEntity
  8
1
  6
Continuous
 62
     2
100
AcDbLine
 10
-139.9124760526111
 20
-124.5413164076471
 30
0.0
 11
-139.7761793577673
 21
-125.0499825977076
 31
0.0
  0
LINE
  5
110
330
1F
100
AcDbEntity
  8
1
  6
Continuous
 62
     2
100
AcDbLine
 10
-139.7761793577673
 20
-125.5765925880572
 30
0.0
 11
-139.7761793577673
 21
-125.0499825977076
 31
0.0
  0
LINE
  5
111
330
1F
100
AcDbEntity
  8
0
  6
Continuous
 62
     7
100
AcDbLine
 10
-139.9124760526111
 20
-124.5413164076471
 30
0.0
 11
-141.9292251212693
 21
-117.0147064172975
 31
0.0
  0
LINE
  5
112
330
1F
100
AcDbEntity
  8
0
  6
Continuous
 62
     2
100
AcDbLine
 10
-152.7261793577674
 20
-112.0499825977076
 30
0.0
 11
-150.7261793577674
 21
-112.0499825977076
 31
0.0
  0
LINE
  5
113
330
1F
100
AcDbEntity
  8
1
  6
Continuous
 62
     7
100
AcDbLine
 10
-139.7761793577673
 20
-125.5765925880572
 30
0.0
 11
-139.7761793577674
 21
-129.0417770370626
 31
0.0
  0
LINE
  5
114
330
1F
100
AcDbEntity
  8
0
  6
Continuous
 62
     7
100
AcDbLine
 10
-140.7761793577673
 20
-146.0499825977076
 30
0.0
 11
-147.6761793577674
 21
-146.0499825977076
 31
0.0
  0
LINE
  5
115
330
1F
100
AcDbEntity
  8
0
  6
Continuous
 62
     7
100
AcDbLine
 10
-152.7261793577674
 20
-114.0499825977076
 30
0.0
 11
-150.7261793577674
 21
-114.0499825977076
 31
0.0
  0
LINE
  5
116
330
1F
100
AcDbEntity
  8
0
  6
Continuous
 62
     7
100
AcDbLine
 10
-152.7261793577674
 20
-114.0499825977076
 30
0.0
 11
-152.7261793577674
 21
-117.5499825977076
 31
0.0
  0
LINE
  5
117
330
1F
100
AcDbEntity
  8
0
  6
Continuous
 62
     7
100
AcDbLine
 10
-150.2261793577674
 20
-114.0499825977076
 30
0.0
 11
-145.7929284264256
 21
-114.0499825977076
 31
0.0
  0
LINE
  5
118
330
1F
100
AcDbEntity
  8
0
  6
Continuous
 62
     7
100
AcDbLine
 10
-150.7261793577674
 20
-114.0499825977076
 30
0.0
 11
-150.2261793577674
 21
-114.0499825977076
 31
0.0
  0
LINE
  5
119
330
1F
100
AcDbEntity
  8
0
  6
Continuous
 62
     2
100
AcDbLine
 10
-150.2261793577674
 20
-114.0499825977076
 30
0.0
 11
-150.2261793577674
 21
-117.5499825977076
 31
0.0
  0
LINE
  5
11A
330
1F
100
AcDbEntity
  8
0
  6
Continuous
 62
     7
100
AcDbLine
 10
-150.2261793577674
 20
-117.5499825977076
 30
0.0
 11
-152.7261793577674
 21
-117.5499825977076
 31
0.0
  0
LINE
  5
11B
330
1F
100
AcDbEntity
  8
0
  6
Continuous
 62
     7
100
AcDbLine
 10
-150.7261793577674
 20
-114.0499825977076
 30
0.0
 11
-150.7261793577674
 21
-112.0499825977076
 31
0.0
  0
LINE
  5
11C
330
1F
100
AcDbEntity
  8
0
  6
Continuous
 62
     7
100
AcDbLine
 10
-150.2261793577674
 20
-117.5499825977076
 30
0.0
 11
-149.1761793577674
 21
-117.5499825977076
 31
0.0
  0
LINE
  5
11D
330
1F
100
AcDbEntity
  8
0
  6
Continuous
 62
     7
100
AcDbLine
 10
-148.6761793577674
 20
-118.0499825977076
 30
0.0
 11
-148.6761793577674
 21
-126.5885427703143
 31
0.0
  0
LINE
  5
11E
330
1F
100
AcDbEntity
  8
0
  6
Continuous
 62
     7
100
AcDbLine
 10
-150.7261793577674
 20
-96.54998298830085
 30
0.0
 11
-150.7261793577674
 21
-93.54998298830085
 31
0.0
  0
LINE
  5
11F
330
1F
100
AcDbEntity
  8
0
  6
Continuous
 62
     7
100
AcDbLine
 10
-150.7261793577674
 20
-96.54998298830085
 30
0.0
 11
-150.7261793577674
 21
-112.0499825977076
 31
0.0
  0
LINE
  5
120
330
1F
100
AcDbEntity
  8
0
  6
Continuous
 62
     7
100
AcDbLine
 10
-152.7261793577674
 20
-114.0499825977076
 30
0.0
 11
-152.7261793577674
 21
-112.0499825977076
 31
0.0
  0
LINE
  5
121
330
1F
100
AcDbEntity
  8
0
  6
Continuous
 62
     7
100
AcDbLine
 10
-152.7261793577674
 20
-96.54998298830085
 30
0.0
 11
-152.7261793577674
 21
-112.0499825977076
 31
0.0
  0
LINE
  5
122
330
1F
100
AcDbEntity
  8
0
  6
Continuous
 62
     7
100
AcDbLine
 10
-152.7261793577674
 20
-96.54998298830085
 30
0.0
 11
-152.7261793577674
 21
-93.54998298830085
 31
0.0
  0
LINE
  5
123
330
1F
100
AcDbEntity
  8
0
  6
Continuous
 62
     2
100
AcDbLine
 10
-150.7261793577674
 20
-96.54998298830085
 30
0.0
 11
-152.7261793577674
 21
-96.54998298830085
 31
0.0
  0
LINE
  5
124
330
1F
100
AcDbEntity
  8
0
  6
Continuous
 62
     7
100
AcDbLine
 10
-150.7261793577674
 20
-93.54998298830085
 30
0.0
 11
-152.7261793577674
 21
-93.54998298830085
 31
0.0
  0
LINE
  5
125
330
1F
100
AcDbEntity
  8
1
  6
DOT_CENTER
 62
     2
100
AcDbLine
 10
-215.0261793577674
 20
-91.54998298830085
 30
0.0
 11
-215.0261793577674
 21
-110.3499829883008
 31
0.0
  0
LINE
  5
126
330
1F
100
AcDbEntity
  8
1
  6
Continuous
 62
     7
100
AcDbLine
 10
-261.5259352618371
 20
-125.6078387740581
 30
0.0
 11
-261.5259352618372
 21
-131.0514455798169
 31
0.0
  0
LINE
  5
127
330
1F
100
AcDbEntity
  8
1
  6
Continuous
 62
     7
100
AcDbLine
 10
-263.5259352618372
 20
-125.6078387740581
 30
0.0
 11
-263.5259352618373
 21
-130.4551763525089
 31
0.0
  0
LINE
  5
128
330
1F
100
AcDbEntity
  8
1
  6
Continuous
 62
     7
100
AcDbLine
 10
-168.5264234536979
 20
-125.6078387740582
 30
0.0
 11
-168.5264234536979
 21
-130.4373000589446
 31
0.0
  0
LINE
  5
129
330
1F
100
AcDbEntity
  8
0
  6
Continuous
 62
     7
100
AcDbLine
 10
-139.7761793577674
 20
-134.5176282378324
 30
0.0
 11
-139.7761793577674
 21
-145.0499825977076
 31
0.0
  0
LINE
  5
12A
330
1F
100
AcDbEntity
  8
1
  6
Continuous
 62
     7
100
AcDbLine
 10
-148.6761793577674
 20
-126.5885427703143
 30
0.0
 11
-148.6761793577674
 21
-128.8250358881746
 31
0.0
  0
LINE
  5
12B
330
1F
100
AcDbEntity
  8
1
  6
Continuous
 62
     7
100
AcDbLine
 10
-166.5264234536979
 20
-125.6078387740582
 30
0.0
 11
-166.526423453698
 21
-131.0222725799649
 31
0.0
  0
LINE
  5
12C
330
1F
100
AcDbEntity
  8
1
  6
Continuous
 62
     7
100
AcDbLine
 10
-168.526423453698
 20
-132.1524627983493
 30
0.0
 11
-168.526423453698
 21
-145.0812287837086
 31
0.0
  0
LINE
  5
12D
330
1F
100
AcDbEntity
  8
1
  6
Continuous
 62
     7
100
AcDbLine
 10
-166.526423453698
 20
-132.7216198535018
 30
0.0
 11
-166.526423453698
 21
-145.0812287837086
 31
0.0
  0
LINE
  5
12E
330
1F
100
AcDbEntity
  8
1
  6
Continuous
 62
     7
100
AcDbLine
 10
-261.525935261837
 20
-132.7535103577577
 30
0.0
 11
-261.5259352618375
 21
-145.0812287837086
 31
0.0
  0
LINE
  5
12F
330
1F
100
AcDbEntity
  8
1
  6
Continuous
 62
     7
100
AcDbLine
 10
-263.5259352618372
 20
-132.1287210171092
 30
0.0
 11
-263.5259352618375
 21
-145.0812287837085
 31
0.0
  0
LINE
  5
130
330
1F
100
AcDbEntity
  8
1
  6
Continuous
 62
     7
100
AcDbLine
 10
-139.7761793577674
 20
-131.0549603116586
 30
0.0
 11
-139.7761793577674
 21
-134.5176282378324
 31
0.0
  0
LINE
  5
131
330
1F
100
AcDbEntity
  8
1
  6
Continuous
 62
     7
100
AcDbLine
 10
-148.6761793577674
 20
-130.8382191627707
 30
0.0
 11
-148.6761793577674
 21
-145.0499825977076
 31
0.0
  0
ARC
  5
132
330
1F
100
AcDbEntity
  8
1
  6
Continuous
 62
     2
100
AcDbCircle
 10
-250.0261793577674
 20
-100.9499829883008
 30
0.0
 40
2.000000000000199
100
AcDbArc
 50
0.0
 51
270.0000000000057
  0
ARC
  5
133
330
1F
100
AcDbEntity
  8
1
  6
Continuous
 62
     2
100
AcDbCircle
 10
-231.0261793577674
 20
-100.9499829883008
 30
0.0
 40
2.000000000000313
100
AcDbArc
 50
0.0
 51
270.000000000009
  0
ARC
  5
134
330
1F
100
AcDbEntity
  8
1
  6
Continuous
 62
     2
100
AcDbCircle
 10
-220.0261793577674
 20
-100.9499829883008
 30
0.0
 40
2.000000000000313
100
AcDbArc
 50
0.0
 51
270.000000000009
  0
ARC
  5
135
330
1F
100
AcDbEntity
  8
1
  6
Continuous
 62
     2
100
AcDbCircle
 10
-210.0261793577674
 20
-100.9499829883008
 30
0.0
 40
2.000000000000313
100
AcDbArc
 50
0.0
 51
270.000000000009
  0
ARC
  5
136
330
1F
100
AcDbEntity
  8
1
  6
Continuous
 62
     2
100
AcDbCircle
 10
-199.0261793577674
 20
-100.9499829883008
 30
0.0
 40
2.000000000000313
100
AcDbArc
 50
0.0
 51
270.000000000009
  0
ARC
  5
137
330
1F
100
AcDbEntity
  8
1
  6
Continuous
 62
     2
100
AcDbCircle
 10
-180.0261793577674
 20
-100.9499829883008
 30
0.0
 40
2.000000000000199
100
AcDbArc
 50
0.0
 51
270.0000000000057
  0
ARC
  5
138
330
1F
100
AcDbEntity
  8
1
  6
Continuous
 62
     2
100
AcDbCircle
 10
-252.5261793577674
 20
-104.8499829883008
 30
0.0
 40
1.5
100
AcDbArc
 50
0.0
 51
270.0
  0
ARC
  5
139
330
1F
100
AcDbEntity
  8
1
  6
Continuous
 62
     2
100
AcDbCircle
 10
-252.5261793577674
 20
-97.04998298830085
 30
0.0
 40
1.5
100
AcDbArc
 50
0.0
 51
270.0
  0
ARC
  5
13A
330
1F
100
AcDbEntity
  8
1
  6
Continuous
 62
     2
100
AcDbCircle
 10
-237.5261793577674
 20
-97.04998298830085
 30
0.0
 40
1.5
100
AcDbArc
 50
0.0
 51
270.0
  0
ARC
  5
13B
330
1F
100
AcDbEntity
  8
1
  6
Continuous
 62
     2
100
AcDbCircle
 10
-237.5261793577674
 20
-104.8499829883008
 30
0.0
 40
1.5
100
AcDbArc
 50
0.0
 51
270.0
  0
ARC
  5
13C
330
1F
100
AcDbEntity
  8
1
  6
Continuous
 62
     2
100
AcDbCircle
 10
-232.5261793577674
 20
-97.04998298830085
 30
0.0
 40
1.5
100
AcDbArc
 50
0.0
 51
270.0
  0
ARC
  5
13D
330
1F
100
AcDbEntity
  8
1
  6
Continuous
 62
     2
100
AcDbCircle
 10
-222.5261793577674
 20
-97.04998298830085
 30
0.0
 40
1.5
100
AcDbArc
 50
0.0
 51
270.0
  0
ARC
  5
13E
330
1F
100
AcDbEntity
  8
1
  6
Continuous
 62
     2
100
AcDbCircle
 10
-222.5261793577674
 20
-104.8499829883008
 30
0.0
 40
1.5
100
AcDbArc
 50
0.0
 51
270.0
  0
ARC
  5
13F
330
1F
100
AcDbEntity
  8
1
  6
Continuous
 62
     2
100
AcDbCircle
 10
-217.5261793577674
 20
-104.8499829883008
 30
0.0
 40
1.5
100
AcDbArc
 50
0.0
 51
270.0
  0
ARC
  5
140
330
1F
100
AcDbEntity
  8
1
  6
Continuous
 62
     2
100
AcDbCircle
 10
-207.5261793577674
 20
-104.8499829883008
 30
0.0
 40
1.5
100
AcDbArc
 50
0.0
 51
270.0
  0
ARC
  5
141
330
1F
100
AcDbEntity
  8
1
  6
Continuous
 62
     2
100
AcDbCircle
 10
-207.5261793577674
 20
-97.04998298830085
 30
0.0
 40
1.5
100
AcDbArc
 50
0.0
 51
270.0
  0
ARC
  5
142
330
1F
100
AcDbEntity
  8
1
  6
Continuous
 62
     2
100
AcDbCircle
 10
-202.5261793577674
 20
-97.04998298830085
 30
0.0
 40
1.5
100
AcDbArc
 50
0.0
 51
270.0
  0
ARC
  5
143
330
1F
100
AcDbEntity
  8
1
  6
Continuous
 62
     2
100
AcDbCircle
 10
-197.5261793577674
 20
-104.8499829883008
 30
0.0
 40
1.5
100
AcDbArc
 50
0.0
 51
270.0
  0
ARC
  5
144
330
1F
100
AcDbEntity
  8
1
  6
Continuous
 62
     2
100
AcDbCircle
 10
-192.5261793577674
 20
-97.04998298830085
 30
0.0
 40
1.5
100
AcDbArc
 50
0.0
 51
270.0
  0
ARC
  5
145
330
1F
100
AcDbEntity
  8
1
  6
Continuous
 62
     2
100
AcDbCircle
 10
-192.5261793577674
 20
-104.8499829883008
 30
0.0
 40
1.5
100
AcDbArc
 50
0.0
 51
270.0
  0
ARC
  5
146
330
1F
100
AcDbEntity
  8
1
  6
Continuous
 62
     2
100
AcDbCircle
 10
-187.5261793577674
 20
-104.8499829883008
 30
0.0
 40
1.5
100
AcDbArc
 50
0.0
 51
270.0
  0
ARC
  5
147
330
1F
100
AcDbEntity
  8
1
  6
Continuous
 62
     2
100
AcDbCircle
 10
-177.5261793577674
 20
-104.8499829883008
 30
0.0
 40
1.5
100
AcDbArc
 50
0.0
 51
270.0
  0
ARC
  5
148
330
1F
100
AcDbEntity
  8
1
  6
Continuous
 62
     2
100
AcDbCircle
 10
-177.5261793577674
 20
-97.04998298830085
 30
0.0
 40
1.5
100
AcDbArc
 50
0.0
 51
270.0
  0
ARC
  5
149
330
1F
100
AcDbEntity
  8
0
  6
Continuous
 62
     7
100
AcDbCircle
 10
-252.5261793577674
 20
-110.3499829883008
 30
0.0
 40
2.0
100
AcDbArc
 50
90.0
 51
180.0
  0
ARC
  5
14A
330
1F
100
AcDbEntity
  8
0
  6
Continuous
 62
     7
100
AcDbCircle
 10
-260.5261793577674
 20
-112.0499825977076
 30
0.0
 40
2.0
100
AcDbArc
 50
270.0
 51
0.0
  0
ARC
  5
14B
330
1F
100
AcDbEntity
  8
0
  6
Continuous
 62
     7
100
AcDbCircle
 10
-258.5261793577674
 20
-113.5499825977076
 30
0.0
 40
4.0
100
AcDbArc
 50
270.0
 51
0.0
  0
ARC
  5
14C
330
1F
100
AcDbEntity
  8
0
  6
Continuous
 62
     7
100
AcDbCircle
 10
-255.5261793577674
 20
-96.54998298830085
 30
0.0
 40
3.0
100
AcDbArc
 50
90.0
 51
180.0
  0
ARC
  5
14D
330
1F
100
AcDbEntity
  8
0
  6
Continuous
 62
     7
100
AcDbCircle
 10
-169.5261793577674
 20
-112.0499825977076
 30
0.0
 40
2.0
100
AcDbArc
 50
180.0
 51
270.0
  0
ARC
  5
14E
330
1F
100
AcDbEntity
  8
0
  6
Continuous
 62
     7
100
AcDbCircle
 10
-177.5261793577674
 20
-110.3499829883008
 30
0.0
 40
2.0
100
AcDbArc
 50
0.0
 51
90.0
  0
ARC
  5
14F
330
1F
100
AcDbEntity
  8
0
  6
Continuous
 62
     7
100
AcDbCircle
 10
-174.5261793577674
 20
-96.54998298830085
 30
0.0
 40
3.0
100
AcDbArc
 50
0.0
 51
90.0
  0
ARC
  5
150
330
1F
100
AcDbEntity
  8
0
  6
Continuous
 62
     7
100
AcDbCircle
 10
-171.5261793577674
 20
-113.5499825977076
 30
0.0
 40
4.0
100
AcDbArc
 50
180.0
 51
270.0
  0
ARC
  5
151
330
1F
100
AcDbEntity
  8
0
  6
Continuous
 62
     7
100
AcDbCircle
 10
-143.7761793577673
 20
-125.5765925880572
 30
0.0
 40
4.0
100
AcDbArc
 50
0.0
 51
15.0000000000005
  0
ARC
  5
152
330
1F
100
AcDbEntity
  8
0
  6
Continuous
 62
     7
100
AcDbCircle
 10
-140.7761793577673
 20
-145.0499825977076
 30
0.0
 40
1.0
100
AcDbArc
 50
270.0
 51
0.0
  0
ARC
  5
153
330
1F
100
AcDbEntity
  8
0
  6
Continuous
 62
     7
100
AcDbCircle
 10
-145.7929284264256
 20
-118.0499825977076
 30
0.0
 40
4.000000000000021
100
AcDbArc
 50
15.00000000000007
 51
90.0
  0
ARC
  5
154
330
1F
100
AcDbEntity
  8
0
  6
Continuous
 62
     7
100
AcDbCircle
 10
-147.6761793577674
 20
-145.0499825977076
 30
0.0
 40
1.0
100
AcDbArc
 50
180.0
 51
270.0
  0
ARC
  5
155
330
1F
100
AcDbEntity
  8
0
  6
Continuous
 62
     7
100
AcDbCircle
 10
-149.1761793577674
 20
-118.0499825977076
 30
0.0
 40
0.5
100
AcDbArc
 50
0.0
 51
90.0
  0
CIRCLE
  5
156
330
1F
100
AcDbEntity
  8
0
  6
Continuous
 62
     7
100
AcDbCircle
 10
-220.0261793577674
 20
-100.9499829883008
 30
0.0
 40
1.650000000000006
  0
CIRCLE
  5
157
330
1F
100
AcDbEntity
  8
0
  6
Continuous
 62
     7
100
AcDbCircle
 10
-232.5261793577674
 20
-97.04998298830085
 30
0.0
 40
1.25
  0
CIRCLE
  5
158
330
1F
100
AcDbEntity
  8
0
  6
Continuous
 62
     7
100
AcDbCircle
 10
-222.5261793577674
 20
-97.04998298830085
 30
0.0
 40
1.25
  0
CIRCLE
  5
159
330
1F
100
AcDbEntity
  8
0
  6
Continuous
 62
     7
100
AcDbCircle
 10
-252.5261793577674
 20
-97.04998298830085
 30
0.0
 40
1.25
  0
CIRCLE
  5
15A
330
1F
100
AcDbEntity
  8
0
  6
Continuous
 62
     7
100
AcDbCircle
 10
-237.5261793577674
 20
-97.04998298830085
 30
0.0
 40
1.25
  0
CIRCLE
  5
15B
330
1F
100
AcDbEntity
  8
0
  6
Continuous
 62
     7
100
AcDbCircle
 10
-250.0261793577674
 20
-100.9499829883008
 30
0.0
 40
1.650000000000006
  0
CIRCLE
  5
15C
330
1F
100
AcDbEntity
  8
0
  6
Continuous
 62
     7
100
AcDbCircle
 10
-207.5261793577674
 20
-97.04998298830085
 30
0.0
 40
1.25
  0
CIRCLE
  5
15D
330
1F
100
AcDbEntity
  8
0
  6
Continuous
 62
     7
100
AcDbCircle
 10
-222.5261793577674
 20
-104.8499829883008
 30
0.0
 40
1.25
  0
CIRCLE
  5
15E
330
1F
100
AcDbEntity
  8
0
  6
Continuous
 62
     7
100
AcDbCircle
 10
-217.5261793577674
 20
-104.8499829883008
 30
0.0
 40
1.25
  0
CIRCLE
  5
15F
330
1F
100
AcDbEntity
  8
0
  6
Continuous
 62
     7
100
AcDbCircle
 10
-252.5261793577674
 20
-104.8499829883008
 30
0.0
 40
1.25
  0
CIRCLE
  5
160
330
1F
100
AcDbEntity
  8
0
  6
Continuous
 62
     7
100
AcDbCircle
 10
-207.5261793577674
 20
-104.8499829883008
 30
0.0
 40
1.25
  0
CIRCLE
  5
161
330
1F
100
AcDbEntity
  8
0
  6
Continuous
 62
     7
100
AcDbCircle
 10
-237.5261793577674
 20
-104.8499829883008
 30
0.0
 40
1.25
  0
CIRCLE
  5
162
330
1F
100
AcDbEntity
  8
0
  6
Continuous
 62
     7
100
AcDbCircle
 10
-210.0261793577674
 20
-100.9499829883008
 30
0.0
 40
1.650000000000006
  0
CIRCLE
  5
163
330
1F
100
AcDbEntity
  8
0
  6
Continuous
 62
     7
100
AcDbCircle
 10
-231.0261793577674
 20
-100.9499829883008
 30
0.0
 40
1.650000000000006
  0
CIRCLE
  5
164
330
1F
100
AcDbEntity
  8
0
  6
Continuous
 62
     7
100
AcDbCircle
 10
-202.5261793577674
 20
-97.04998298830085
 30
0.0
 40
1.25
  0
CIRCLE
  5
165
330
1F
100
AcDbEntity
  8
0
  6
Continuous
 62
     7
100
AcDbCircle
 10
-197.5261793577674
 20
-104.8499829883008
 30
0.0
 40
1.25
  0
CIRCLE
  5
166
330
1F
100
AcDbEntity
  8
0
  6
Continuous
 62
     7
100
AcDbCircle
 10
-192.5261793577674
 20
-97.04998298830085
 30
0.0
 40
1.25
  0
CIRCLE
  5
167
330
1F
100
AcDbEntity
  8
0
  6
Continuous
 62
     7
100
AcDbCircle
 10
-177.5261793577674
 20
-97.04998298830085
 30
0.0
 40
1.25
  0
CIRCLE
  5
168
330
1F
100
AcDbEntity
  8
0
  6
Continuous
 62
     7
100
AcDbCircle
 10
-187.5261793577674
 20
-104.8499829883008
 30
0.0
 40
1.25
  0
CIRCLE
  5
169
330
1F
100
AcDbEntity
  8
0
  6
Continuous
 62
     7
100
AcDbCircle
 10
-177.5261793577674
 20
-104.8499829883008
 30
0.0
 40
1.25
  0
CIRCLE
  5
16A
330
1F
100
AcDbEntity
  8
0
  6
Continuous
 62
     7
100
AcDbCircle
 10
-192.5261793577674
 20
-104.8499829883008
 30
0.0
 40
1.25
  0
CIRCLE
  5
16B
330
1F
100
AcDbEntity
  8
0
  6
Continuous
 62
     7
100
AcDbCircle
 10
-180.0261793577674
 20
-100.9499829883008
 30
0.0
 40
1.650000000000006
  0
CIRCLE
  5
16C
330
1F
100
AcDbEntity
  8
0
  6
Continuous
 62
     7
100
AcDbCircle
 10
-199.0261793577674
 20
-100.9499829883008
 30
0.0
 40
1.650000000000006
  0
CIRCLE
  5
16D
330
1F
100
AcDbEntity
  8
0
  6
Continuous
 62
     7
100
AcDbCircle
 10
-144.2261793577674
 20
-141.5499825977076
 30
0.0
 40
2.099999999999994
  0
SPLINE
  5
16E
330
1F
100
AcDbEntity
  8
1
  6
Continuous
 62
     7
100
AcDbSpline
210
0.0
220
0.0
230
1.0
 70
     8
 71
     3
 72
     9
 73
     5
 74
     3
 42
0.000000001
 43
0.0000000001
 44
0.00000001
 40
0.0
 40
0.0
 40
0.0
 40
0.0
 40
0.9730071288739197
 40
2.131517995759004
 40
2.131517995759004
 40
2.131517995759004
 40
2.131517995759004
 10
-168.5264234536979
 20
-130.4373000589446
 30
0.0
 10
-168.1943284922519
 20
-130.4242784786743
 30
0.0
 10
-167.4668246919503
 20
-130.3957527740404
 30
0.0
 10
-166.8575649395258
 20
-130.8016574866731
 30
0.0
 10
-166.526423453698
 20
-131.0222725799649
 30
0.0
 11
-168.5264234536979
 21
-130.4373000589446
 31
0.0
 11
-167.5547781506411
 21
-130.4887615202294
 31
0.0
 11
-166.526423453698
 21
-131.0222725799649
 31
0.0
  0
SPLINE
  5
16F
330
1F
100
AcDbEntity
  8
1
  6
Continuous
 62
     7
100
AcDbSpline
210
0.0
220
0.0
230
1.0
 70
     8
 71
     3
 72
     9
 73
     5
 74
     3
 42
0.000000001
 43
0.0000000001
 44
0.00000001
 40
0.0
 40
0.0
 40
0.0
 40
0.0
 40
0.9728156357394743
 40
2.134946146534699
 40
2.134946146534699
 40
2.134946146534699
 40
2.134946146534699
 10
-168.526423453698
 20
-132.1524627983493
 30
0.0
 10
-168.1937406804509
 20
-132.1287091201044
 30
0.0
 10
-167.4636333750149
 20
-132.0765791960791
 30
0.0
 10
-166.8567646468527
 20
-132.4942604295246
 30
0.0
 10
-166.5264234536967
 20
-132.7216198535019
 30
0.0
 11
-168.526423453698
 21
-132.1524627983493
 31
0.0
 11
-167.5539629903336
 21
-132.178748017746
 31
0.0
 11
-166.5264234536967
 21
-132.7216198535019
 31
0.0
  0
SPLINE
  5
170
330
1F
100
AcDbEntity
  8
1
  6
Continuous
 62
     7
100
AcDbSpline
210
0.0
220
0.0
230
1.0
 70
     8
 71
     3
 72
     9
 73
     5
 74
     3
 42
0.000000001
 43
0.0000000001
 44
0.00000001
 40
0.0
 40
0.0
 40
0.0
 40
0.0
 40
0.9813670528407505
 40
2.152064515198497
 40
2.152064515198497
 40
2.152064515198497
 40
2.152064515198497
 10
-263.5259352618372
 20
-132.1287210171092
 30
0.0
 10
-263.1897291359691
 20
-132.1125954591215
 30
0.0
 10
-262.4524542616714
 20
-132.0772333361609
 30
0.0
 10
-261.8523725573685
 20
-132.5152399612522
 30
0.0
 10
-261.5259352618346
 20
-132.7535103577578
 30
0.0
 11
-263.5259352618372
 21
-132.1287210171092
 31
0.0
 11
-262.5458457733657
 21
-132.1787798972798
 31
0.0
 11
-261.5259352618346
 21
-132.7535103577578
 31
0.0
  0
SPLINE
  5
171
330
1F
100
AcDbEntity
  8
1
  6
Continuous
 62
     7
100
AcDbSpline
210
0.0
220
0.0
230
1.0
 70
     8
 71
     3
 72
     9
 73
     5
 74
     3
 42
0.000000001
 43
0.0000000001
 44
0.00000001
 40
0.0
 40
0.0
 40
0.0
 40
0.0
 40
0.9824448232718501
 40
2.158527538691062
 40
2.158527538691062
 40
2.158527538691062
 40
2.158527538691062
 10
-263.5259352618386
 20
-130.4551763525102
 30
0.0
 10
-263.1884185736003
 20
-130.4205120565497
 30
0.0
 10
-262.4468613410983
 20
-130.3443512208183
 30
0.0
 10
-261.8507364089996
 20
-130.8020606708976
 30
0.0
 10
-261.5259352618343
 20
-131.0514455798172
 30
0.0
 11
-263.5259352618386
 21
-130.4551763525102
 31
0.0
 11
-262.5435126220867
 21
-130.4617788303398
 31
0.0
 11
-261.5259352618343
 21
-131.0514455798172
 31
0.0
  0
SPLINE
  5
172
330
1F
100
AcDbEntity
  8
1
  6
Continuous
 62
     7
100
AcDbSpline
210
0.0
220
0.0
230
1.0
 70
     8
 71
     3
 72
    12
 73
     8
 74
     6
 42
0.000000001
 43
0.0000000001
 44
0.00000001
 40
0.0
 40
0.0
 40
0.0
 40
0.0
 40
1.858895442844005
 40
4.117076972660773
 40
5.954682027481622
 40
7.9499280865491
 40
9.802754389410476
 40
9.802754389410476
 40
9.802754389410476
 40
9.802754389410476
 10
-148.6761793577674
 20
-130.8382191627707
 30
0.0
 10
-148.031099526488
 20
-130.8557877975718
 30
0.0
 10
-146.6023783296156
 20
-130.8946987517629
 30
0.0
 10
-145.1932405921452
 20
-132.3196387512609
 30
0.0
 10
-142.9600188613956
 20
-133.1963856538823
 30
0.0
 10
-141.7256138313584
 20
-131.2738054070551
 30
0.0
 10
-140.4097572678915
 20
-131.1260862863564
 30
0.0
 10
-139.7761793577674
 20
-131.0549603116586
 30
0.0
 11
-148.6761793577674
 21
-130.8382191627707
 31
0.0
 11
-146.8335821971185
 21
-131.0838367147567
 31
0.0
 11
-144.9318631516346
 21
-132.3015593785433
 31
0.0
 11
-143.149557120674
 21
-132.7489714424408
 31
0.0
 11
-141.5655362345723
 21
-131.5357589033249
 31
0.0
 11
-139.7761793577674
 21
-131.0549603116586
 31
0.0
  0
SPLINE
  5
173
330
1F
100
AcDbEntity
  8
1
  6
Continuous
 62
     7
100
AcDbSpline
210
0.0
220
0.0
230
1.0
 70
     8
 71
     3
 72
    12
 73
     8
 74
     6
 42
0.000000001
 43
0.0000000001
 44
0.00000001
 40
0.0
 40
0.0
 40
0.0
 40
0.0
 40
1.858895442843952
 40
4.117076972660775
 40
5.954682027481589
 40
7.949928086548816
 40
9.802754389410428
 40
9.802754389410428
 40
9.802754389410428
 40
9.802754389410428
 10
-148.6761793577674
 20
-128.8250358881746
 30
0.0
 10
-148.031099526488
 20
-128.8426045229757
 30
0.0
 10
-146.6023783296156
 20
-128.8815154771669
 30
0.0
 10
-145.1932405921453
 20
-130.3064554766648
 30
0.0
 10
-142.9600188613957
 20
-131.1832023792862
 30
0.0
 10
-141.7256138313584
 20
-129.2606221324593
 30
0.0
 10
-140.4097572678916
 20
-129.1129030117604
 30
0.0
 10
-139.7761793577674
 20
-129.0417770370626
 30
0.0
 11
-148.6761793577674
 21
-128.8250358881746
 31
0.0
 11
-146.8335821971186
 21
-129.0706534401606
 31
0.0
 11
-144.9318631516346
 21
-130.2883761039473
 31
0.0
 11
-143.149557120674
 21
-130.7357881678448
 31
0.0
 11
-141.5655362345725
 21
-129.5225756287291
 31
0.0
 11
-139.7761793577674
 21
-129.0417770370626
 31
0.0
  0
DIMENSION
  5
17F
330
1F
100
AcDbEntity
  8
1
100
AcDbDimension
  2
*D3
 10
-222.5261793577674
 20
-89.88611580532358
 30
0.0
 11
-212.5261793577674
 21
-88.13611580532358
 31
0.0
 70
    33
  1
<>
 71
     5
 42
-1.0
 53
0.00013888888889
  3
ME10_DIM_10
100
AcDbAlignedDimension
 13
-202.5261793577674
 23
-93.67498298830085
 33
0.0
 14
-222.5261793577674
 24
-93.67498298830085
 34
0.0
  0
DIMENSION
  5
18A
330
1F
100
AcDbEntity
  8
1
100
AcDbDimension
  2
*D4
 10
-252.5261793577674
 20
-89.4288001335375
 30
0.0
 11
-245.0261793577674
 21
-87.6788001335375
 31
0.0
 70
    33
  1
<>
 71
     5
 42
-1.0
 53
0.00013888888889
  3
ME10_DIM_11
100
AcDbAlignedDimension
 13
-237.5261793577674
 23
-93.67498298830085
 33
0.0
 14
-252.5261793577674
 24
-93.67498298830085
 34
0.0
  0
DIMENSION
  5
195
330
1F
100
AcDbEntity
  8
1
100
AcDbDimension
  2
*D5
 10
-261.5259352618375
 20
-149.013494635534
 30
0.0
 11
-215.0261793577677
 21
-147.263494635534
 31
0.0
 70
    32
  1
<>
 71
     5
 42
-1.0
 53
0.00013888888889
  3
ME10_DIM_12
100
AcDbAlignedDimension
 13
-168.526423453698
 23
-146.0812287837086
 33
0.0
 14
-261.5259352618375
 24
-146.0812287837086
 34
0.0
100
AcDbRotatedDimension
  0
DIMENSION
  5
1A0
330
1F
100
AcDbEntity
  8
1
100
AcDbDimension
  2
*D6
 10
-267.037079175049
 20
-114.0812287837085
 30
0.0
 11
-268.862079175049
 21
-130.0812287837085
 31
0.0
 70
    32
  1
46,5
 71
     5
 42
-1.0
 53
90.0
  3
ME10_DIM_13
100
AcDbAlignedDimension
 13
-263.5259352618375
 23
-146.0812287837085
 33
0.0
 14
-263.5259352618368
 24
-114.0812287837085
 34
0.0
 50
90.0
100
AcDbRotatedDimension
  0
DIMENSION
  5
1AB
330
1F
100
AcDbEntity
  8
1
100
AcDbDimension
  2
*D7
 10
-164.295622258739
 20
-108.3499829883009
 30
0.0
 11
-166.120622258739
 21
-100.9499829883009
 31
0.0
 70
    32
  1
<>
 71
     5
 42
-1.0
 53
90.0
  3
ME10_DIM_14
100
AcDbAlignedDimension
 13
-174.5261793577674
 23
-93.54998298830085
 33
0.0
 14
-177.5261793577674
 24
-108.3499829883008
 34
0.0
 50
90.0
100
AcDbRotatedDimension
  0
DIMENSION
  5
1B6
330
1F
100
AcDbEntity
  8
1
100
AcDbDimension
  2
*D8
 10
-150.7261793577674
 20
-91.0031812253433
 30
0.0
 11
-147.4761793577674
 21
-89.1781812253433
 31
0.0
 70
    32
  1
<>
 71
     5
 42
-1.0
 53
0.00013888888889
  3
ME10_DIM_15
100
AcDbAlignedDimension
 13
-144.2261793577674
 23
-137.2399825977076
 33
0.0
 14
-150.7261793577674
 24
-93.54998298830085
 34
0.0
100
AcDbRotatedDimension
  0
DIMENSION
  5
1C2
330
1F
100
AcDbEntity
  8
1
100
AcDbDimension
  2
*D9
 10
-148.6761793577674
 20
-154.3426028182906
 30
0.0
 11
-144.2261793577674
 21
-152.5176028182906
 31
0.0
 70
    32
  1
<>
 71
     5
 42
-1.0
 53
0.00013888888889
  3
ME10_DIM_16
100
AcDbAlignedDimension
 13
-139.7761793577674
 23
-145.0499825977076
 33
0.0
 14
-148.6761793577674
 24
-145.0499825977076
 34
0.0
100
AcDbRotatedDimension
  0
DIMENSION
  5
1CD
330
1F
100
AcDbEntity
  8
1
100
AcDbDimension
  2
*D10
 10
-157.519925403111
 20
-93.54998298830083
 30
0.0
 11
-159.269925403111
 21
-119.7999827930042
 31
0.0
 70
    32
  1
67
 71
     5
 42
-1.0
 53
90.0
  3
ME10_DIM_17
100
AcDbAlignedDimension
 13
-147.6761793577674
 23
-146.0499825977076
 33
0.0
 14
-152.7261793577674
 24
-93.54998298830085
 34
0.0
 50
90.0
100
AcDbRotatedDimension
  0
INSERT
  5
1D6
330
1F
100
AcDbEntity
  8
1
100
AcDbBlockReference
  2
*D11
 10
0.0
 20
0.0
 30
0.0
  0
INSERT
  5
1DF
330
1F
100
AcDbEntity
  8
1
100
AcDbBlockReference
  2
*D12
 10
0.0
 20
0.0
 30
0.0
  0
INSERT
  5
1E8
330
1F
100
AcDbEntity
  8
1
100
AcDbBlockReference
  2
*D13
 10
0.0
 20
0.0
 30
0.0
  0
ENDSEC
  0
SECTION
  2
OBJECTS
  0
DICTIONARY
  5
C
330
0
100
AcDbDictionary
281
     1
  3
ACAD_GROUP
350
D
  3
ACAD_LAYOUT
350
1A
  3
ACAD_MATERIAL
350
3B
  3
ACAD_MLEADERSTYLE
350
1EB
  3
ACAD_MLINESTYLE
350
17
  3
ACAD_PLOTSETTINGS
350
19
  3
ACAD_PLOTSTYLENAME
350
E
  3
ACAD_VISUALSTYLE
350
2A
  3
AcDbVariableDictionary
350
1E9
  0
DICTIONARY
  5
D
102
{ACAD_REACTORS
330
C
102
}
330
C
100
AcDbDictionary
281
     1
  0
DICTIONARY
  5
1A
102
{ACAD_REACTORS
330
C
102
}
330
C
100
AcDbDictionary
281
     1
  3
Layout1
350
1E
  3
Layout2
350
26
  3
Model
350
22
  0
DICTIONARY
  5
3B
102
{ACAD_REACTORS
330
C
102
}
330
C
100
AcDbDictionary
281
     1
  3
ByBlock
350
3D
  3
ByLayer
350
3C
  3
Global
350
3E
  0
DICTIONARY
  5
1EB
102
{ACAD_REACTORS
330
C
102
}
330
C
100
AcDbDictionary
281
     1
  0
DICTIONARY
  5
17
102
{ACAD_REACTORS
330
C
102
}
330
C
100
AcDbDictionary
281
     1
  3
Standard
350
18
  0
DICTIONARY
  5
19
102
{ACAD_REACTORS
330
C
102
}
330
C
100
AcDbDictionary
281
     1
  0
ACDBDICTIONARYWDFLT
  5
E
102
{ACAD_REACTORS
330
C
102
}
330
C
100
AcDbDictionary
281
     1
  3
Normal
350
F
100
AcDbDictionaryWithDefault
340
F
  0
DICTIONARY
  5
2A
102
{ACAD_REACTORS
330
C
102
}
330
C
100
AcDbDictionary
281
     1
  3
2dWireframe
350
2F
  3
3D Hidden
350
31
  3
3dWireframe
350
30
  3
Basic
350
32
  3
Brighten
350
36
  3
ColorChange
350
3A
  3
Conceptual
350
34
  3
Dim
350
35
  3
Facepattern
350
39
  3
Flat
350
2B
  3
FlatWithEdges
350
2C
  3
Gouraud
350
2D
  3
GouraudWithEdges
350
2E
  3
Linepattern
350
38
  3
Realistic
350
33
  3
Thicken
350
37
  0
DICTIONARY
  5
1E9
102
{ACAD_REACTORS
330
C
102
}
330
C
100
AcDbDictionary
281
     1
  3
DIMASSOC
350
1EC
  3
HIDETEXT
350
1ED
  0
LAYOUT
  5
1E
102
{ACAD_REACTORS
330
1A
102
}
330
1A
100
AcDbPlotSettings
  1

  2
none_device
  4

  6

 40
0.0
 41
0.0
 42
0.0
 43
0.0
 44
0.0
 45
0.0
 46
0.0
 47
0.0
 48
0.0
 49
0.0
140
0.0
141
0.0
142
1.0
143
1.0
 70
   688
 72
     0
 73
     0
 74
     5
  7

 75
    16
147
1.0
148
0.0
149
0.0
100
AcDbLayout
  1
Layout1
 70
     1
 71
     1
 10
0.0
 20
0.0
 11
12.0
 21
9.0
 12
0.0
 22
0.0
 32
0.0
 14
1.00000000000000E+20
 24
1.00000000000000E+20
 34
1.00000000000000E+20
 15
-1.00000000000000E+20
 25
-1.00000000000000E+20
 35
-1.00000000000000E+20
146
0.0
 13
0.0
 23
0.0
 33
0.0
 16
1.0
 26
0.0
 36
0.0
 17
0.0
 27
1.0
 37
0.0
 76
     0
330
1B
  0
LAYOUT
  5
26
102
{ACAD_REACTORS
330
1A
102
}
330
1A
100
AcDbPlotSettings
  1

  2
none_device
  4

  6

 40
0.0
 41
0.0
 42
0.0
 43
0.0
 44
0.0
 45
0.0
 46
0.0
 47
0.0
 48
0.0
 49
0.0
140
0.0
141
0.0
142
1.0
143
1.0
 70
   688
 72
     0
 73
     0
 74
     5
  7

 75
    16
147
1.0
148
0.0
149
0.0
100
AcDbLayout
  1
Layout2
 70
     1
 71
     2
 10
0.0
 20
0.0
 11
0.0
 21
0.0
 12
0.0
 22
0.0
 32
0.0
 14
0.0
 24
0.0
 34
0.0
 15
0.0
 25
0.0
 35
0.0
146
0.0
 13
0.0
 23
0.0
 33
0.0
 16
1.0
 26
0.0
 36
0.0
 17
0.0
 27
1.0
 37
0.0
 76
     0
330
23
  0
LAYOUT
  5
22
102
{ACAD_REACTORS
330
1A
102
}
330
1A
100
AcDbPlotSettings
  1

  2
none_device
  4

  6

 40
0.0
 41
0.0
 42
0.0
 43
0.0
 44
0.0
 45
0.0
 46
0.0
 47
0.0
 48
0.0
 49
0.0
140
0.0
141
0.0
142
1.0
143
1.0
 70
  1712
 72
     0
 73
     0
 74
     0
  7

 75
     0
147
1.0
148
0.0
149
0.0
100
AcDbLayout
  1
Model
 70
     1
 71
     0
 10
0.0
 20
0.0
 11
12.0
 21
9.0
 12
0.0
 22
0.0
 32
0.0
 14
-275.0402340193238
 24
-179.4302329287113
 34
0.0
 15
-126.5402340193238
 25
-74.4302329287112
 35
0.0
146
0.0
 13
0.0
 23
0.0
 33
0.0
 16
1.0
 26
0.0
 36
0.0
 17
0.0
 27
1.0
 37
0.0
 76
     0
330
1F
331
29
  0
MATERIAL
  5
3D
102
{ACAD_REACTORS
330
3B
102
}
102
{ACAD_XDICTIONARY
360
210
102
}
330
3B
100
AcDbMaterial
  1
ByBlock
  0
MATERIAL
  5
3C
102
{ACAD_REACTORS
330
3B
102
}
102
{ACAD_XDICTIONARY
360
20E
102
}
330
3B
100
AcDbMaterial
  1
ByLayer
  0
MATERIAL
  5
3E
102
{ACAD_REACTORS
330
3B
102
}
102
{ACAD_XDICTIONARY
360
212
102
}
330
3B
100
AcDbMaterial
  1
Global
  0
MLINESTYLE
  5
18
102
{ACAD_REACTORS
330
17
102
}
330
17
100
AcDbMlineStyle
  2
Standard
 70
     0
  3

 62
   256
 51
90.0
 52
90.0
 71
     2
 49
0.5
 62
   256
  6
BYLAYER
 49
-0.5
 62
   256
  6
BYLAYER
  0
ACDBPLACEHOLDER
  5
F
102
{ACAD_REACTORS
330
E
102
}
330
E
  0
VISUALSTYLE
  5
2F
102
{ACAD_REACTORS
330
2A
102
}
102
{ACAD_XDICTIONARY
360
1F6
102
}
330
2A
100
AcDbVisualStyle
  2
2dWireframe
 70
     4
 71
     0
 72
     2
 73
     0
 90
        0
 40
-0.6
 41
-30.0
 62
     5
 63
     7
 74
     1
 91
        4
 64
     7
 65
   257
 75
     1
175
     1
 42
1.0
 92
        0
 66
   257
 43
1.0
 76
     1
 77
     6
 78
     2
 67
     7
 79
     5
170
     0
171
     0
290
     0
174
     0
 93
        1
 44
0.0
173
     0
291
     0
 45
0.0
1001
ACAD
1000
AcDbSavedByObjectVersion
1070
     0
  0
VISUALSTYLE
  5
31
102
{ACAD_REACTORS
330
2A
102
}
102
{ACAD_XDICTIONARY
360
1FA
102
}
330
2A
100
AcDbVisualStyle
  2
3D Hidden
 70
     6
 71
     1
 72
     2
 73
     2
 90
        0
 40
-0.6
 41
-30.0
 62
     5
 63
     7
 74
     2
 91
        2
 64
     7
 65
   257
 75
     2
175
     1
 42
40.0
 92
        0
 66
   257
 43
1.0
 76
     1
 77
     6
 78
     2
 67
     7
 79
     3
170
     0
171
     0
290
     0
174
     0
 93
        1
 44
0.0
173
     0
291
     0
 45
0.0
1001
ACAD
1000
AcDbSavedByObjectVersion
1070
     0
  0
VISUALSTYLE
  5
30
102
{ACAD_REACTORS
330
2A
102
}
102
{ACAD_XDICTIONARY
360
1F8
102
}
330
2A
100
AcDbVisualStyle
  2
3dWireframe
 70
     5
 71
     0
 72
     2
 73
     0
 90
        0
 40
-0.6
 41
-30.0
 62
     5
 63
     7
 74
     1
 91
        4
 64
     7
 65
   257
 75
     1
175
     1
 42
1.0
 92
        0
 66
   257
 43
1.0
 76
     1
 77
     6
 78
     2
 67
     7
 79
     5
170
     0
171
     0
290
     0
174
     0
 93
        1
 44
0.0
173
     0
291
     0
 45
0.0
1001
ACAD
1000
AcDbSavedByObjectVersion
1070
     0
  0
VISUALSTYLE
  5
32
102
{ACAD_REACTORS
330
2A
102
}
102
{ACAD_XDICTIONARY
360
1FC
102
}
330
2A
100
AcDbVisualStyle
  2
Basic
 70
     7
 71
     1
 72
     0
 73
     1
 90
        0
 40
-0.6
 41
-30.0
 62
     5
 63
     7
 74
     0
 91
        4
 64
     7
 65
   257
 75
     1
175
     1
 42
1.0
 92
        8
 66
     7
 43
1.0
 76
     1
 77
     6
 78
     2
 67
     7
 79
     5
170
     0
171
     0
290
     0
174
     0
 93
        1
 44
0.0
173
     0
291
     1
 45
0.0
1001
ACAD
1000
AcDbSavedByObjectVersion
1070
     0
  0
VISUALSTYLE
  5
36
102
{ACAD_REACTORS
330
2A
102
}
102
{ACAD_XDICTIONARY
360
204
102
}
330
2A
100
AcDbVisualStyle
  2
Brighten
 70
    12
 71
     2
 72
     2
 73
     0
 90
        0
 40
-0.6
 41
-30.0
 62
     5
 63
     7
 74
     1
 91
        4
 64
     7
 65
   257
 75
     1
175
     1
 42
1.0
 92
        8
 66
     7
 43
1.0
 76
     1
 77
     6
 78
     2
 67
     7
 79
     5
170
     0
171
     0
290
     0
174
     0
 93
        1
 44
50.0
173
     0
291
     1
 45
0.0
1001
ACAD
1000
AcDbSavedByObjectVersion
1070
     0
  0
VISUALSTYLE
  5
3A
102
{ACAD_REACTORS
330
2A
102
}
102
{ACAD_XDICTIONARY
360
20C
102
}
330
2A
100
AcDbVisualStyle
  2
ColorChange
 70
    16
 71
     2
 72
     2
 73
     3
 90
        0
 40
-0.6
 41
-30.0
 62
     5
 63
     8
 74
     1
 91
        4
 64
     7
 65
   257
 75
     1
175
     1
 42
1.0
 92
        8
 66
     8
 43
1.0
 76
     1
 77
     6
 78
     2
 67
     7
 79
     5
170
     0
171
     0
290
     0
174
     0
 93
        1
 44
0.0
173
     0
291
     1
 45
0.0
1001
ACAD
1000
AcDbSavedByObjectVersion
1070
     0
  0
VISUALSTYLE
  5
34
102
{ACAD_REACTORS
330
2A
102
}
102
{ACAD_XDICTIONARY
360
200
102
}
330
2A
100
AcDbVisualStyle
  2
Conceptual
 70
     9
 71
     3
 72
     2
 73
     0
 90
        0
 40
-0.6
 41
-30.0
 62
     5
 63
     7
 74
     2
 91
        2
 64
     7
 65
   257
 75
     1
175
     1
 42
40.0
 92
        8
 66
     7
 43
1.0
 76
     1
 77
     6
 78
     2
 67
     7
 79
     3
170
     0
171
     0
290
     0
174
     0
 93
        1
 44
0.0
173
     0
291
     0
 45
0.0
1001
ACAD
1000
AcDbSavedByObjectVersion
1070
     0
  0
VISUALSTYLE
  5
35
102
{ACAD_REACTORS
330
2A
102
}
102
{ACAD_XDICTIONARY
360
202
102
}
330
2A
100
AcDbVisualStyle
  2
Dim
 70
    11
 71
     2
 72
     2
 73
     0
 90
        0
 40
-0.6
 41
-30.0
 62
     5
 63
     7
 74
     1
 91
        4
 64
     7
 65
   257
 75
     1
175
     1
 42
1.0
 92
        8
 66
     7
 43
1.0
 76
     1
 77
     6
 78
     2
 67
     7
 79
     5
170
     0
171
     0
290
     0
174
     0
 93
        1
 44
-50.0
173
     0
291
     1
 45
0.0
1001
ACAD
1000
AcDbSavedByObjectVersion
1070
     0
  0
VISUALSTYLE
  5
39
102
{ACAD_REACTORS
330
2A
102
}
102
{ACAD_XDICTIONARY
360
20A
102
}
330
2A
100
AcDbVisualStyle
  2
Facepattern
 70
    15
 71
     2
 72
     2
 73
     0
 90
        0
 40
-0.6
 41
-30.0
 62
     5
 63
     7
 74
     1
 91
        4
 64
     7
 65
   257
 75
     1
175
     1
 42
1.0
 92
        8
 66
     7
 43
1.0
 76
     1
 77
     6
 78
     2
 67
     7
 79
     5
170
     0
171
     0
290
     0
174
     0
 93
        1
 44
0.0
173
     0
291
     1
 45
0.0
1001
ACAD
1000
AcDbSavedByObjectVersion
1070
     0
  0
VISUALSTYLE
  5
2B
102
{ACAD_REACTORS
330
2A
102
}
102
{ACAD_XDICTIONARY
360
1EE
102
}
330
2A
100
AcDbVisualStyle
  2
Flat
 70
     0
 71
     2
 72
     1
 73
     1
 90
        2
 40
-0.6
 41
30.0
 62
     5
 63
     7
 74
     0
 91
        4
 64
     7
 65
   257
 75
     1
175
     1
 42
1.0
 92
        8
 66
     7
 43
1.0
 76
     1
 77
     6
 78
     2
 67
     7
 79
     5
170
     0
171
     0
290
     0
174
     0
 93
       13
 44
0.0
173
     0
291
     1
 45
0.0
1001
ACAD
1000
AcDbSavedByObjectVersion
1070
     0
  0
VISUALSTYLE
  5
2C
102
{ACAD_REACTORS
330
2A
102
}
102
{ACAD_XDICTIONARY
360
1F0
102
}
330
2A
100
AcDbVisualStyle
  2
FlatWithEdges
 70
     1
 71
     2
 72
     1
 73
     1
 90
        2
 40
-0.6
 41
30.0
 62
     5
 63
     7
 74
     1
 91
        4
 64
     7
 65
   257
 75
     1
175
     1
 42
1.0
 92
        0
 66
   257
 43
1.0
 76
     1
 77
     6
 78
     2
 67
     7
 79
     5
170
     0
171
     0
290
     0
174
     0
 93
       13
 44
0.0
173
     0
291
     1
 45
0.0
1001
ACAD
1000
AcDbSavedByObjectVersion
1070
     0
  0
VISUALSTYLE
  5
2D
102
{ACAD_REACTORS
330
2A
102
}
102
{ACAD_XDICTIONARY
360
1F2
102
}
330
2A
100
AcDbVisualStyle
  2
Gouraud
 70
     2
 71
     2
 72
     2
 73
     1
 90
        2
 40
-0.6
 41
30.0
 62
     5
 63
     7
 74
     0
 91
        4
 64
     7
 65
   257
 75
     1
175
     1
 42
1.0
 92
        0
 66
     7
 43
1.0
 76
     1
 77
     6
 78
     2
 67
     7
 79
     5
170
     0
171
     0
290
     0
174
     0
 93
       13
 44
0.0
173
     0
291
     1
 45
0.0
1001
ACAD
1000
AcDbSavedByObjectVersion
1070
     0
  0
VISUALSTYLE
  5
2E
102
{ACAD_REACTORS
330
2A
102
}
102
{ACAD_XDICTIONARY
360
1F4
102
}
330
2A
100
AcDbVisualStyle
  2
GouraudWithEdges
 70
     3
 71
     2
 72
     2
 73
     1
 90
        2
 40
-0.6
 41
30.0
 62
     5
 63
     7
 74
     1
 91
        4
 64
     7
 65
   257
 75
     1
175
     1
 42
1.0
 92
        0
 66
   257
 43
1.0
 76
     1
 77
     6
 78
     2
 67
     7
 79
     5
170
     0
171
     0
290
     0
174
     0
 93
       13
 44
0.0
173
     0
291
     1
 45
0.0
1001
ACAD
1000
AcDbSavedByObjectVersion
1070
     0
  0
VISUALSTYLE
  5
38
102
{ACAD_REACTORS
330
2A
102
}
102
{ACAD_XDICTIONARY
360
208
102
}
330
2A
100
AcDbVisualStyle
  2
Linepattern
 70
    14
 71
     2
 72
     2
 73
     0
 90
        0
 40
-0.6
 41
-30.0
 62
     5
 63
     7
 74
     1
 91
        4
 64
     7
 65
   257
 75
     7
175
     7
 42
1.0
 92
        8
 66
     7
 43
1.0
 76
     1
 77
     6
 78
     2
 67
     7
 79
     5
170
     0
171
     0
290
     0
174
     0
 93
        1
 44
0.0
173
     0
291
     1
 45
0.0
1001
ACAD
1000
AcDbSavedByObjectVersion
1070
     0
  0
VISUALSTYLE
  5
33
102
{ACAD_REACTORS
330
2A
102
}
102
{ACAD_XDICTIONARY
360
1FE
102
}
330
2A
100
AcDbVisualStyle
  2
Realistic
 70
     8
 71
     2
 72
     2
 73
     0
 90
        0
 40
-0.6
 41
-30.0
 62
     5
 63
     7
 74
     1
 91
        0
 64
     7
 65
   257
 75
     1
175
     1
 42
1.0
 92
        8
 66
     8
 43
1.0
 76
     1
 77
     6
 78
     2
 67
     7
 79
     5
170
     0
171
     0
290
     0
174
     0
 93
       13
 44
0.0
173
     0
291
     0
 45
0.0
1001
ACAD
1000
AcDbSavedByObjectVersion
1070
     0
  0
VISUALSTYLE
  5
37
102
{ACAD_REACTORS
330
2A
102
}
102
{ACAD_XDICTIONARY
360
206
102
}
330
2A
100
AcDbVisualStyle
  2
Thicken
 70
    13
 71
     2
 72
     2
 73
     0
 90
        0
 40
-0.6
 41
-30.0
 62
     5
 63
     7
 74
     1
 91
        4
 64
     7
 65
   257
 75
     1
175
     1
 42
1.0
 92
       12
 66
     7
 43
1.0
 76
     1
 77
     6
 78
     2
 67
     7
 79
     5
170
     0
171
     0
290
     0
174
     0
 93
        1
 44
0.0
173
     0
291
     1
 45
0.0
1001
ACAD
1000
AcDbSavedByObjectVersion
1070
     0
  0
DICTIONARYVAR
  5
1EC
102
{ACAD_REACTORS
330
1E9
102
}
330
1E9
100
DictionaryVariables
280
     0
  1
2
  0
DICTIONARYVAR
  5
1ED
102
{ACAD_REACTORS
330
1E9
102
}
330
1E9
100
DictionaryVariables
280
     0
  1
1
  0
DICTIONARY
  5
210
330
3D
100
AcDbDictionary
280
     1
281
     1
  3
ACAD_XREC_ROUNDTRIP
360
211
  0
DICTIONARY
  5
20E
330
3C
100
AcDbDictionary
280
     1
281
     1
  3
ACAD_XREC_ROUNDTRIP
360
20F
  0
DICTIONARY
  5
212
330
3E
100
AcDbDictionary
280
     1
281
     1
  3
ACAD_XREC_ROUNDTRIP
360
213
  0
DICTIONARY
  5
1F6
330
2F
100
AcDbDictionary
280
     1
281
     1
  3
ACAD_XREC_ROUNDTRIP
360
1F7
  0
DICTIONARY
  5
1FA
330
31
100
AcDbDictionary
280
     1
281
     1
  3
ACAD_XREC_ROUNDTRIP
360
1FB
  0
DICTIONARY
  5
1F8
330
30
100
AcDbDictionary
280
     1
281
     1
  3
ACAD_XREC_ROUNDTRIP
360
1F9
  0
DICTIONARY
  5
1FC
330
32
100
AcDbDictionary
280
     1
281
     1
  3
ACAD_XREC_ROUNDTRIP
360
1FD
  0
DICTIONARY
  5
204
330
36
100
AcDbDictionary
280
     1
281
     1
  3
ACAD_XREC_ROUNDTRIP
360
205
  0
DICTIONARY
  5
20C
330
3A
100
AcDbDictionary
280
     1
281
     1
  3
ACAD_XREC_ROUNDTRIP
360
20D
  0
DICTIONARY
  5
200
330
34
100
AcDbDictionary
280
     1
281
     1
  3
ACAD_XREC_ROUNDTRIP
360
201
  0
DICTIONARY
  5
202
330
35
100
AcDbDictionary
280
     1
281
     1
  3
ACAD_XREC_ROUNDTRIP
360
203
  0
DICTIONARY
  5
20A
330
39
100
AcDbDictionary
280
     1
281
     1
  3
ACAD_XREC_ROUNDTRIP
360
20B
  0
DICTIONARY
  5
1EE
330
2B
100
AcDbDictionary
280
     1
281
     1
  3
ACAD_XREC_ROUNDTRIP
360
1EF
  0
DICTIONARY
  5
1F0
330
2C
100
AcDbDictionary
280
     1
281
     1
  3
ACAD_XREC_ROUNDTRIP
360
1F1
  0
DICTIONARY
  5
1F2
330
2D
100
AcDbDictionary
280
     1
281
     1
  3
ACAD_XREC_ROUNDTRIP
360
1F3
  0
DICTIONARY
  5
1F4
330
2E
100
AcDbDictionary
280
     1
281
     1
  3
ACAD_XREC_ROUNDTRIP
360
1F5
  0
DICTIONARY
  5
208
330
38
100
AcDbDictionary
280
     1
281
     1
  3
ACAD_XREC_ROUNDTRIP
360
209
  0
DICTIONARY
  5
1FE
330
33
100
AcDbDictionary
280
     1
281
     1
  3
ACAD_XREC_ROUNDTRIP
360
1FF
  0
DICTIONARY
  5
206
330
37
100
AcDbDictionary
280
     1
281
     1
  3
ACAD_XREC_ROUNDTRIP
360
207
  0
XRECORD
  5
211
102
{ACAD_REACTORS
330
210
102
}
330
210
100
AcDbXrecord
280
     1
102
MATERIAL
148
0.0
149
0.0
149
0.0
 93
        0
 94
      127
282
     0
 72
     1
 77
     1
171
     1
175
     1
179
     1
273
     0
  0
XRECORD
  5
20F
102
{ACAD_REACTORS
330
20E
102
}
330
20E
100
AcDbXrecord
280
     1
102
MATERIAL
148
0.0
149
0.0
149
0.0
 93
        0
 94
      127
282
     0
 72
     1
 77
     1
171
     1
175
     1
179
     1
273
     0
  0
XRECORD
  5
213
102
{ACAD_REACTORS
330
212
102
}
330
212
100
AcDbXrecord
280
     1
102
MATERIAL
148
0.0
149
0.0
149
0.0
 93
        0
 94
      127
282
     0
 72
     1
 77
     1
171
     1
175
     1
179
     1
273
     0
  0
XRECORD
  5
1F7
102
{ACAD_REACTORS
330
1F6
102
}
330
1F6
100
AcDbXrecord
280
     1
102
RTVSPropertyOp0
 70
     1
102
RTVSPropertyOp1
 70
     1
102
RTVSPropertyOp2
 70
     1
102
RTVSPropertyOp3
 70
     1
102
RTVSPropertyOp4
 70
     1
102
RTVSPropertyOp5
 70
     1
102
RTVSPropertyOp6
 70
     1
102
RTVSPropertyOp7
 70
     1
102
RTVSPropertyOp8
 70
     1
102
RTVSPropertyOp9
 70
     1
102
RTVSPropertyOp10
 70
     1
102
RTVSPropertyOp11
 70
     1
102
RTVSPropertyOp12
 70
     1
102
RTVSPropertyOp13
 70
     1
102
RTVSPropertyOp14
 70
     1
102
RTVSPropertyOp15
 70
     1
102
RTVSPropertyOp16
 70
     1
102
RTVSPropertyOp17
 70
     1
102
RTVSPropertyOp18
 70
     1
102
RTVSPropertyOp19
 70
     1
102
RTVSPropertyOp20
 70
     1
102
RTVSPropertyOp21
 70
     1
102
RTVSPropertyOp22
 70
     1
102
RTVSPropertyOp23
 70
     1
102
RTVSPropertyOp24
 70
     1
102
RTVSPropertyOp25
 70
     1
102
RTVSPropertyOp26
 70
     1
102
RTVSPropertyOp27
 70
     1
102
RTVSPropertyOp28
 70
     1
102
RTVSPropertyOp29
 70
     1
102
RTVSPropertyOp30
 70
     1
102
RTVSPropertyOp31
 70
     1
102
RTVSPropertyOp32
 70
     1
  0
XRECORD
  5
1FB
102
{ACAD_REACTORS
330
1FA
102
}
330
1FA
100
AcDbXrecord
280
     1
102
RTVSPropertyOp0
 70
     1
102
RTVSPropertyOp1
 70
     1
102
RTVSPropertyOp2
 70
     1
102
RTVSPropertyOp3
 70
     1
102
RTVSPropertyOp4
 70
     1
102
RTVSPropertyOp5
 70
     1
102
RTVSPropertyOp6
 70
     1
102
RTVSPropertyOp7
 70
     1
102
RTVSPropertyOp8
 70
     1
102
RTVSPropertyOp9
 70
     1
102
RTVSPropertyOp10
 70
     1
102
RTVSPropertyOp11
 70
     1
102
RTVSPropertyOp12
 70
     1
102
RTVSPropertyOp13
 70
     1
102
RTVSPropertyOp14
 70
     1
102
RTVSPropertyOp15
 70
     1
102
RTVSPropertyOp16
 70
     1
102
RTVSPropertyOp17
 70
     1
102
RTVSPropertyOp18
 70
     1
102
RTVSPropertyOp19
 70
     1
102
RTVSPropertyOp20
 70
     1
102
RTVSPropertyOp21
 70
     1
102
RTVSPropertyOp22
 70
     1
102
RTVSPropertyOp23
 70
     1
102
RTVSPropertyOp24
 70
     1
102
RTVSPropertyOp25
 70
     1
102
RTVSPropertyOp26
 70
     1
102
RTVSPropertyOp27
 70
     1
102
RTVSPropertyOp28
 70
     1
102
RTVSPropertyOp29
 70
     1
102
RTVSPropertyOp30
 70
     1
102
RTVSPropertyOp31
 70
     1
102
RTVSPropertyOp32
 70
     1
  0
XRECORD
  5
1F9
102
{ACAD_REACTORS
330
1F8
102
}
330
1F8
100
AcDbXrecord
280
     1
102
RTVSPropertyOp0
 70
     1
102
RTVSPropertyOp1
 70
     1
102
RTVSPropertyOp2
 70
     1
102
RTVSPropertyOp3
 70
     1
102
RTVSPropertyOp4
 70
     1
102
RTVSPropertyOp5
 70
     1
102
RTVSPropertyOp6
 70
     1
102
RTVSPropertyOp7
 70
     1
102
RTVSPropertyOp8
 70
     1
102
RTVSPropertyOp9
 70
     1
102
RTVSPropertyOp10
 70
     1
102
RTVSPropertyOp11
 70
     1
102
RTVSPropertyOp12
 70
     1
102
RTVSPropertyOp13
 70
     1
102
RTVSPropertyOp14
 70
     1
102
RTVSPropertyOp15
 70
     1
102
RTVSPropertyOp16
 70
     1
102
RTVSPropertyOp17
 70
     1
102
RTVSPropertyOp18
 70
     1
102
RTVSPropertyOp19
 70
     1
102
RTVSPropertyOp20
 70
     1
102
RTVSPropertyOp21
 70
     1
102
RTVSPropertyOp22
 70
     1
102
RTVSPropertyOp23
 70
     1
102
RTVSPropertyOp24
 70
     1
102
RTVSPropertyOp25
 70
     1
102
RTVSPropertyOp26
 70
     1
102
RTVSPropertyOp27
 70
     1
102
RTVSPropertyOp28
 70
     1
102
RTVSPropertyOp29
 70
     1
102
RTVSPropertyOp30
 70
     1
102
RTVSPropertyOp31
 70
     1
102
RTVSPropertyOp32
 70
     1
  0
XRECORD
  5
1FD
102
{ACAD_REACTORS
330
1FC
102
}
330
1FC
100
AcDbXrecord
280
     1
102
RTVSPropertyOp0
 70
     1
102
RTVSPropertyOp1
 70
     1
102
RTVSPropertyOp2
 70
     1
102
RTVSPropertyOp3
 70
     1
102
RTVSPropertyOp4
 70
     1
102
RTVSPropertyOp5
 70
     1
102
RTVSPropertyOp6
 70
     1
102
RTVSPropertyOp7
 70
     1
102
RTVSPropertyOp8
 70
     1
102
RTVSPropertyOp9
 70
     1
102
RTVSPropertyOp10
 70
     1
102
RTVSPropertyOp11
 70
     1
102
RTVSPropertyOp12
 70
     1
102
RTVSPropertyOp13
 70
     1
102
RTVSPropertyOp14
 70
     1
102
RTVSPropertyOp15
 70
     1
102
RTVSPropertyOp16
 70
     1
102
RTVSPropertyOp17
 70
     1
102
RTVSPropertyOp18
 70
     1
102
RTVSPropertyOp19
 70
     1
102
RTVSPropertyOp20
 70
     1
102
RTVSPropertyOp21
 70
     1
102
RTVSPropertyOp22
 70
     1
102
RTVSPropertyOp23
 70
     1
102
RTVSPropertyOp24
 70
     1
102
RTVSPropertyOp25
 70
     1
102
RTVSPropertyOp26
 70
     1
102
RTVSPropertyOp27
 70
     1
102
RTVSPropertyOp28
 70
     1
102
RTVSPropertyOp29
 70
     1
102
RTVSPropertyOp30
 70
     1
102
RTVSPropertyOp31
 70
     1
102
RTVSPropertyOp32
 70
     1
  0
XRECORD
  5
205
102
{ACAD_REACTORS
330
204
102
}
330
204
100
AcDbXrecord
280
     1
102
RTVSPropertyOp0
 70
     1
102
RTVSPropertyOp1
 70
     1
102
RTVSPropertyOp2
 70
     1
102
RTVSPropertyOp3
 70
     1
102
RTVSPropertyOp4
 70
     1
102
RTVSPropertyOp5
 70
     1
102
RTVSPropertyOp6
 70
     1
102
RTVSPropertyOp7
 70
     1
102
RTVSPropertyOp8
 70
     1
102
RTVSPropertyOp9
 70
     1
102
RTVSPropertyOp10
 70
     1
102
RTVSPropertyOp11
 70
     1
102
RTVSPropertyOp12
 70
     1
102
RTVSPropertyOp13
 70
     1
102
RTVSPropertyOp14
 70
     1
102
RTVSPropertyOp15
 70
     1
102
RTVSPropertyOp16
 70
     1
102
RTVSPropertyOp17
 70
     1
102
RTVSPropertyOp18
 70
     1
102
RTVSPropertyOp19
 70
     1
102
RTVSPropertyOp20
 70
     1
102
RTVSPropertyOp21
 70
     1
102
RTVSPropertyOp22
 70
     1
102
RTVSPropertyOp23
 70
     1
102
RTVSPropertyOp24
 70
     1
102
RTVSPropertyOp25
 70
     1
102
RTVSPropertyOp26
 70
     1
102
RTVSPropertyOp27
 70
     1
102
RTVSPropertyOp28
 70
     1
102
RTVSPropertyOp29
 70
     1
102
RTVSPropertyOp30
 70
     1
102
RTVSPropertyOp31
 70
     1
102
RTVSPropertyOp32
 70
     1
  0
XRECORD
  5
20D
102
{ACAD_REACTORS
330
20C
102
}
330
20C
100
AcDbXrecord
280
     1
102
RTVSPropertyOp0
 70
     1
102
RTVSPropertyOp1
 70
     1
102
RTVSPropertyOp2
 70
     1
102
RTVSPropertyOp3
 70
     1
102
RTVSPropertyOp4
 70
     1
102
RTVSPropertyOp5
 70
     1
102
RTVSPropertyOp6
 70
     1
102
RTVSPropertyOp7
 70
     1
102
RTVSPropertyOp8
 70
     1
102
RTVSPropertyOp9
 70
     1
102
RTVSPropertyOp10
 70
     1
102
RTVSPropertyOp11
 70
     1
102
RTVSPropertyOp12
 70
     1
102
RTVSPropertyOp13
 70
     1
102
RTVSPropertyOp14
 70
     1
102
RTVSPropertyOp15
 70
     1
102
RTVSPropertyOp16
 70
     1
102
RTVSPropertyOp17
 70
     1
102
RTVSPropertyOp18
 70
     1
102
RTVSPropertyOp19
 70
     1
102
RTVSPropertyOp20
 70
     1
102
RTVSPropertyOp21
 70
     1
102
RTVSPropertyOp22
 70
     1
102
RTVSPropertyOp23
 70
     1
102
RTVSPropertyOp24
 70
     1
102
RTVSPropertyOp25
 70
     1
102
RTVSPropertyOp26
 70
     1
102
RTVSPropertyOp27
 70
     1
102
RTVSPropertyOp28
 70
     1
102
RTVSPropertyOp29
 70
     1
102
RTVSPropertyOp30
 70
     1
102
RTVSPropertyOp31
 70
     1
102
RTVSPropertyOp32
 70
     1
  0
XRECORD
  5
201
102
{ACAD_REACTORS
330
200
102
}
330
200
100
AcDbXrecord
280
     1
102
RTVSPropertyOp0
 70
     1
102
RTVSPropertyOp1
 70
     1
102
RTVSPropertyOp2
 70
     1
102
RTVSPropertyOp3
 70
     1
102
RTVSPropertyOp4
 70
     1
102
RTVSPropertyOp5
 70
     1
102
RTVSPropertyOp6
 70
     1
102
RTVSPropertyOp7
 70
     1
102
RTVSPropertyOp8
 70
     1
102
RTVSPropertyOp9
 70
     1
102
RTVSPropertyOp10
 70
     1
102
RTVSPropertyOp11
 70
     1
102
RTVSPropertyOp12
 70
     1
102
RTVSPropertyOp13
 70
     1
102
RTVSPropertyOp14
 70
     1
102
RTVSPropertyOp15
 70
     1
102
RTVSPropertyOp16
 70
     1
102
RTVSPropertyOp17
 70
     1
102
RTVSPropertyOp18
 70
     1
102
RTVSPropertyOp19
 70
     1
102
RTVSPropertyOp20
 70
     1
102
RTVSPropertyOp21
 70
     1
102
RTVSPropertyOp22
 70
     1
102
RTVSPropertyOp23
 70
     1
102
RTVSPropertyOp24
 70
     1
102
RTVSPropertyOp25
 70
     1
102
RTVSPropertyOp26
 70
     1
102
RTVSPropertyOp27
 70
     1
102
RTVSPropertyOp28
 70
     1
102
RTVSPropertyOp29
 70
     1
102
RTVSPropertyOp30
 70
     1
102
RTVSPropertyOp31
 70
     1
102
RTVSPropertyOp32
 70
     1
  0
XRECORD
  5
203
102
{ACAD_REACTORS
330
202
102
}
330
202
100
AcDbXrecord
280
     1
102
RTVSPropertyOp0
 70
     1
102
RTVSPropertyOp1
 70
     1
102
RTVSPropertyOp2
 70
     1
102
RTVSPropertyOp3
 70
     1
102
RTVSPropertyOp4
 70
     1
102
RTVSPropertyOp5
 70
     1
102
RTVSPropertyOp6
 70
     1
102
RTVSPropertyOp7
 70
     1
102
RTVSPropertyOp8
 70
     1
102
RTVSPropertyOp9
 70
     1
102
RTVSPropertyOp10
 70
     1
102
RTVSPropertyOp11
 70
     1
102
RTVSPropertyOp12
 70
     1
102
RTVSPropertyOp13
 70
     1
102
RTVSPropertyOp14
 70
     1
102
RTVSPropertyOp15
 70
     1
102
RTVSPropertyOp16
 70
     1
102
RTVSPropertyOp17
 70
     1
102
RTVSPropertyOp18
 70
     1
102
RTVSPropertyOp19
 70
     1
102
RTVSPropertyOp20
 70
     1
102
RTVSPropertyOp21
 70
     1
102
RTVSPropertyOp22
 70
     1
102
RTVSPropertyOp23
 70
     1
102
RTVSPropertyOp24
 70
     1
102
RTVSPropertyOp25
 70
     1
102
RTVSPropertyOp26
 70
     1
102
RTVSPropertyOp27
 70
     1
102
RTVSPropertyOp28
 70
     1
102
RTVSPropertyOp29
 70
     1
102
RTVSPropertyOp30
 70
     1
102
RTVSPropertyOp31
 70
     1
102
RTVSPropertyOp32
 70
     1
  0
XRECORD
  5
20B
102
{ACAD_REACTORS
330
20A
102
}
330
20A
100
AcDbXrecord
280
     1
102
RTVSPropertyOp0
 70
     1
102
RTVSPropertyOp1
 70
     1
102
RTVSPropertyOp2
 70
     1
102
RTVSPropertyOp3
 70
     1
102
RTVSPropertyOp4
 70
     1
102
RTVSPropertyOp5
 70
     1
102
RTVSPropertyOp6
 70
     1
102
RTVSPropertyOp7
 70
     1
102
RTVSPropertyOp8
 70
     1
102
RTVSPropertyOp9
 70
     1
102
RTVSPropertyOp10
 70
     1
102
RTVSPropertyOp11
 70
     1
102
RTVSPropertyOp12
 70
     1
102
RTVSPropertyOp13
 70
     1
102
RTVSPropertyOp14
 70
     1
102
RTVSPropertyOp15
 70
     1
102
RTVSPropertyOp16
 70
     1
102
RTVSPropertyOp17
 70
     1
102
RTVSPropertyOp18
 70
     1
102
RTVSPropertyOp19
 70
     1
102
RTVSPropertyOp20
 70
     1
102
RTVSPropertyOp21
 70
     1
102
RTVSPropertyOp22
 70
     1
102
RTVSPropertyOp23
 70
     1
102
RTVSPropertyOp24
 70
     1
102
RTVSPropertyOp25
 70
     1
102
RTVSPropertyOp26
 70
     1
102
RTVSPropertyOp27
 70
     1
102
RTVSPropertyOp28
 70
     1
102
RTVSPropertyOp29
 70
     1
102
RTVSPropertyOp30
 70
     1
102
RTVSPropertyOp31
 70
     1
102
RTVSPropertyOp32
 70
     1
  0
XRECORD
  5
1EF
102
{ACAD_REACTORS
330
1EE
102
}
330
1EE
100
AcDbXrecord
280
     1
102
RTVSPropertyOp0
 70
     1
102
RTVSPropertyOp1
 70
     1
102
RTVSPropertyOp2
 70
     1
102
RTVSPropertyOp3
 70
     1
102
RTVSPropertyOp4
 70
     1
102
RTVSPropertyOp5
 70
     1
102
RTVSPropertyOp6
 70
     1
102
RTVSPropertyOp7
 70
     1
102
RTVSPropertyOp8
 70
     1
102
RTVSPropertyOp9
 70
     1
102
RTVSPropertyOp10
 70
     1
102
RTVSPropertyOp11
 70
     1
102
RTVSPropertyOp12
 70
     1
102
RTVSPropertyOp13
 70
     1
102
RTVSPropertyOp14
 70
     1
102
RTVSPropertyOp15
 70
     1
102
RTVSPropertyOp16
 70
     1
102
RTVSPropertyOp17
 70
     1
102
RTVSPropertyOp18
 70
     1
102
RTVSPropertyOp19
 70
     1
102
RTVSPropertyOp20
 70
     1
102
RTVSPropertyOp21
 70
     1
102
RTVSPropertyOp22
 70
     1
102
RTVSPropertyOp23
 70
     1
102
RTVSPropertyOp24
 70
     1
102
RTVSPropertyOp25
 70
     1
102
RTVSPropertyOp26
 70
     1
102
RTVSPropertyOp27
 70
     1
102
RTVSPropertyOp28
 70
     1
102
RTVSPropertyOp29
 70
     1
102
RTVSPropertyOp30
 70
     1
102
RTVSPropertyOp31
 70
     1
102
RTVSPropertyOp32
 70
     1
  0
XRECORD
  5
1F1
102
{ACAD_REACTORS
330
1F0
102
}
330
1F0
100
AcDbXrecord
280
     1
102
RTVSPropertyOp0
 70
     1
102
RTVSPropertyOp1
 70
     1
102
RTVSPropertyOp2
 70
     1
102
RTVSPropertyOp3
 70
     1
102
RTVSPropertyOp4
 70
     1
102
RTVSPropertyOp5
 70
     1
102
RTVSPropertyOp6
 70
     1
102
RTVSPropertyOp7
 70
     1
102
RTVSPropertyOp8
 70
     1
102
RTVSPropertyOp9
 70
     1
102
RTVSPropertyOp10
 70
     1
102
RTVSPropertyOp11
 70
     1
102
RTVSPropertyOp12
 70
     1
102
RTVSPropertyOp13
 70
     1
102
RTVSPropertyOp14
 70
     1
102
RTVSPropertyOp15
 70
     1
102
RTVSPropertyOp16
 70
     1
102
RTVSPropertyOp17
 70
     1
102
RTVSPropertyOp18
 70
     1
102
RTVSPropertyOp19
 70
     1
102
RTVSPropertyOp20
 70
     1
102
RTVSPropertyOp21
 70
     1
102
RTVSPropertyOp22
 70
     1
102
RTVSPropertyOp23
 70
     1
102
RTVSPropertyOp24
 70
     1
102
RTVSPropertyOp25
 70
     1
102
RTVSPropertyOp26
 70
     1
102
RTVSPropertyOp27
 70
     1
102
RTVSPropertyOp28
 70
     1
102
RTVSPropertyOp29
 70
     1
102
RTVSPropertyOp30
 70
     1
102
RTVSPropertyOp31
 70
     1
102
RTVSPropertyOp32
 70
     1
  0
XRECORD
  5
1F3
102
{ACAD_REACTORS
330
1F2
102
}
330
1F2
100
AcDbXrecord
280
     1
102
RTVSPropertyOp0
 70
     1
102
RTVSPropertyOp1
 70
     1
102
RTVSPropertyOp2
 70
     1
102
RTVSPropertyOp3
 70
     1
102
RTVSPropertyOp4
 70
     1
102
RTVSPropertyOp5
 70
     1
102
RTVSPropertyOp6
 70
     1
102
RTVSPropertyOp7
 70
     1
102
RTVSPropertyOp8
 70
     1
102
RTVSPropertyOp9
 70
     1
102
RTVSPropertyOp10
 70
     1
102
RTVSPropertyOp11
 70
     1
102
RTVSPropertyOp12
 70
     1
102
RTVSPropertyOp13
 70
     1
102
RTVSPropertyOp14
 70
     1
102
RTVSPropertyOp15
 70
     1
102
RTVSPropertyOp16
 70
     1
102
RTVSPropertyOp17
 70
     1
102
RTVSPropertyOp18
 70
     1
102
RTVSPropertyOp19
 70
     1
102
RTVSPropertyOp20
 70
     1
102
RTVSPropertyOp21
 70
     1
102
RTVSPropertyOp22
 70
     1
102
RTVSPropertyOp23
 70
     1
102
RTVSPropertyOp24
 70
     1
102
RTVSPropertyOp25
 70
     1
102
RTVSPropertyOp26
 70
     1
102
RTVSPropertyOp27
 70
     1
102
RTVSPropertyOp28
 70
     1
102
RTVSPropertyOp29
 70
     1
102
RTVSPropertyOp30
 70
     1
102
RTVSPropertyOp31
 70
     1
102
RTVSPropertyOp32
 70
     1
  0
XRECORD
  5
1F5
102
{ACAD_REACTORS
330
1F4
102
}
330
1F4
100
AcDbXrecord
280
     1
102
RTVSPropertyOp0
 70
     1
102
RTVSPropertyOp1
 70
     1
102
RTVSPropertyOp2
 70
     1
102
RTVSPropertyOp3
 70
     1
102
RTVSPropertyOp4
 70
     1
102
RTVSPropertyOp5
 70
     1
102
RTVSPropertyOp6
 70
     1
102
RTVSPropertyOp7
 70
     1
102
RTVSPropertyOp8
 70
     1
102
RTVSPropertyOp9
 70
     1
102
RTVSPropertyOp10
 70
     1
102
RTVSPropertyOp11
 70
     1
102
RTVSPropertyOp12
 70
     1
102
RTVSPropertyOp13
 70
     1
102
RTVSPropertyOp14
 70
     1
102
RTVSPropertyOp15
 70
     1
102
RTVSPropertyOp16
 70
     1
102
RTVSPropertyOp17
 70
     1
102
RTVSPropertyOp18
 70
     1
102
RTVSPropertyOp19
 70
     1
102
RTVSPropertyOp20
 70
     1
102
RTVSPropertyOp21
 70
     1
102
RTVSPropertyOp22
 70
     1
102
RTVSPropertyOp23
 70
     1
102
RTVSPropertyOp24
 70
     1
102
RTVSPropertyOp25
 70
     1
102
RTVSPropertyOp26
 70
     1
102
RTVSPropertyOp27
 70
     1
102
RTVSPropertyOp28
 70
     1
102
RTVSPropertyOp29
 70
     1
102
RTVSPropertyOp30
 70
     1
102
RTVSPropertyOp31
 70
     1
102
RTVSPropertyOp32
 70
     1
  0
XRECORD
  5
209
102
{ACAD_REACTORS
330
208
102
}
330
208
100
AcDbXrecord
280
     1
102
RTVSPropertyOp0
 70
     1
102
RTVSPropertyOp1
 70
     1
102
RTVSPropertyOp2
 70
     1
102
RTVSPropertyOp3
 70
     1
102
RTVSPropertyOp4
 70
     1
102
RTVSPropertyOp5
 70
     1
102
RTVSPropertyOp6
 70
     1
102
RTVSPropertyOp7
 70
     1
102
RTVSPropertyOp8
 70
     1
102
RTVSPropertyOp9
 70
     1
102
RTVSPropertyOp10
 70
     1
102
RTVSPropertyOp11
 70
     1
102
RTVSPropertyOp12
 70
     1
102
RTVSPropertyOp13
 70
     1
102
RTVSPropertyOp14
 70
     1
102
RTVSPropertyOp15
 70
     1
102
RTVSPropertyOp16
 70
     1
102
RTVSPropertyOp17
 70
     1
102
RTVSPropertyOp18
 70
     1
102
RTVSPropertyOp19
 70
     1
102
RTVSPropertyOp20
 70
     1
102
RTVSPropertyOp21
 70
     1
102
RTVSPropertyOp22
 70
     1
102
RTVSPropertyOp23
 70
     1
102
RTVSPropertyOp24
 70
     1
102
RTVSPropertyOp25
 70
     1
102
RTVSPropertyOp26
 70
     1
102
RTVSPropertyOp27
 70
     1
102
RTVSPropertyOp28
 70
     1
102
RTVSPropertyOp29
 70
     1
102
RTVSPropertyOp30
 70
     1
102
RTVSPropertyOp31
 70
     1
102
RTVSPropertyOp32
 70
     1
  0
XRECORD
  5
1FF
102
{ACAD_REACTORS
330
1FE
102
}
330
1FE
100
AcDbXrecord
280
     1
102
RTVSPropertyOp0
 70
     1
102
RTVSPropertyOp1
 70
     1
102
RTVSPropertyOp2
 70
     1
102
RTVSPropertyOp3
 70
     1
102
RTVSPropertyOp4
 70
     1
102
RTVSPropertyOp5
 70
     1
102
RTVSPropertyOp6
 70
     1
102
RTVSPropertyOp7
 70
     1
102
RTVSPropertyOp8
 70
     1
102
RTVSPropertyOp9
 70
     1
102
RTVSPropertyOp10
 70
     1
102
RTVSPropertyOp11
 70
     1
102
RTVSPropertyOp12
 70
     1
102
RTVSPropertyOp13
 70
     1
102
RTVSPropertyOp14
 70
     1
102
RTVSPropertyOp15
 70
     1
102
RTVSPropertyOp16
 70
     1
102
RTVSPropertyOp17
 70
     1
102
RTVSPropertyOp18
 70
     1
102
RTVSPropertyOp19
 70
     1
102
RTVSPropertyOp20
 70
     1
102
RTVSPropertyOp21
 70
     1
102
RTVSPropertyOp22
 70
     1
102
RTVSPropertyOp23
 70
     1
102
RTVSPropertyOp24
 70
     1
102
RTVSPropertyOp25
 70
     1
102
RTVSPropertyOp26
 70
     1
102
RTVSPropertyOp27
 70
     1
102
RTVSPropertyOp28
 70
     1
102
RTVSPropertyOp29
 70
     1
102
RTVSPropertyOp30
 70
     1
102
RTVSPropertyOp31
 70
     1
102
RTVSPropertyOp32
 70
     1
  0
XRECORD
  5
207
102
{ACAD_REACTORS
330
206
102
}
330
206
100
AcDbXrecord
280
     1
102
RTVSPropertyOp0
 70
     1
102
RTVSPropertyOp1
 70
     1
102
RTVSPropertyOp2
 70
     1
102
RTVSPropertyOp3
 70
     1
102
RTVSPropertyOp4
 70
     1
102
RTVSPropertyOp5
 70
     1
102
RTVSPropertyOp6
 70
     1
102
RTVSPropertyOp7
 70
     1
102
RTVSPropertyOp8
 70
     1
102
RTVSPropertyOp9
 70
     1
102
RTVSPropertyOp10
 70
     1
102
RTVSPropertyOp11
 70
     1
102
RTVSPropertyOp12
 70
     1
102
RTVSPropertyOp13
 70
     1
102
RTVSPropertyOp14
 70
     1
102
RTVSPropertyOp15
 70
     1
102
RTVSPropertyOp16
 70
     1
102
RTVSPropertyOp17
 70
     1
102
RTVSPropertyOp18
 70
     1
102
RTVSPropertyOp19
 70
     1
102
RTVSPropertyOp20
 70
     1
102
RTVSPropertyOp21
 70
     1
102
RTVSPropertyOp22
 70
     1
102
RTVSPropertyOp23
 70
     1
102
RTVSPropertyOp24
 70
     1
102
RTVSPropertyOp25
 70
     1
102
RTVSPropertyOp26
 70
     1
102
RTVSPropertyOp27
 70
     1
102
RTVSPropertyOp28
 70
     1
102
RTVSPropertyOp29
 70
     1
102
RTVSPropertyOp30
 70
     1
102
RTVSPropertyOp31
 70
     1
102
RTVSPropertyOp32
 70
     1
  0
ENDSEC
  0
EOF
